Dolly Parton ‎– Dolly, Dolly, Dolly

Genre:
Style:
Year:

Tracklist

Starting Over Again 3:55
Same Old Fool 3:20
Old Flames Can't Hold A Candle To You 3:28
You're The Only One I Ever Needed 2:57
Say Goodnight 4:04
Fool For Your Love 3:05
Even A Fool Would Let Go 3:18
Sweet Agony 3:40
I Knew You When 3:09
Packin' It Up 3:30

Versions (16)

Cat# Artist Title (Format) Label Cat# Country Year
AHL1-3546 Dolly Parton Dolly, Dolly, Dolly(LP, Album) RCA Victor AHL1-3546 US 1980 Sell This Version
APL1 3546 Dolly Parton Dolly, Dolly, Dolly (LP, Album) RCA Victor APL1 3546 New Zealand 1980 Sell This Version
AHS1-3546 Dolly Parton Dolly, Dolly, Dolly(8-Trk, Album) RCA Victor AHS1-3546 US 1980 Sell This Version
AHK1-3546 Dolly Parton Dolly, Dolly, Dolly(Cass, Album) RCA Victor AHK1-3546 Canada 1980 Sell This Version
PK 13546 Dolly Parton Dolly, Dolly, Dolly(Cass, Album, Dol) RCA PK 13546 Sweden 1980 Sell This Version
AHL1-3546 Dolly Parton Dolly, Dolly, Dolly(LP) RCA Victor AHL1-3546 South Africa 1980 Sell This Version
PL 13546 Dolly Parton Dolly, Dolly, Dolly(LP) RCA Records PL 13546 Netherlands 1980 Sell This Version
PL 13546 Dolly Parton Dolly, Dolly, Dolly(LP, Album) RCA Victor PL 13546 Sweden 1980 Sell This Version
PL 13546 Dolly Parton Dolly, Dolly, Dolly(LP, Album) RCA Victor PL 13546 France 1980 Sell This Version
APL1 3546 Dolly Parton Dolly, Dolly, Dolly(LP, Album) RCA Victor APL1 3546 Australia & New Zealand 1980 Sell This Version
RVP-6465 Dolly Parton Dolly, Dolly, Dolly(LP, Album) RCA RVP-6465 Japan 1980 Sell This Version
PL 13546 Dolly Parton Dolly, Dolly, Dolly(LP, Album) RCA Records PL 13546 Germany 1980 Sell This Version
PL 13546 Dolly Parton Dolly, Dolly, Dolly(LP, Album) RCA PL 13546 UK 1980 Sell This Version
AHL1-3546 Dolly Parton Dolly, Dolly, Dolly(LP, Album) RCA Victor AHL1-3546 Canada 1980 Sell This Version
A 716484 Dolly Parton Dolly, Dolly, Dolly(CD, Album) Sony BMG Music Entertainment Custom Marketing Group A 716484 US 2007 Sell This Version
AHS1-3546 Dolly Parton Dolly Dolly Dolly(8-Trk, Album, Bla) RCA AHS1-3546 Canada Unknown Sell This Version

Recommendations

Reviews Show All 2 Reviews

Add Review

ispace

ispace

October 23, 2018
referencing Dolly, Dolly, Dolly, CD, Album, A 716484
foobar2000 1.3.17 / Dynamic Range Meter 1.1.1
log date: 2018-10-23 21:45:24

--------------------------------------------------------------------------------
Analyzed: Dolly Parton / Dolly Dolly Dolly [US 2007 CD]
--------------------------------------------------------------------------------

DR Peak RMS Duration Track
--------------------------------------------------------------------------------
DR12 0.00 dB -17.07 dB 3:59 01-Starting Over Again
DR13 0.00 dB -15.40 dB 3:21 02-Same Old Fool
DR14 0.00 dB -17.70 dB 3:24 03-Old Flames Can't Hold A Candle To You
DR12 0.00 dB -14.58 dB 3:01 04-You're The Only One I Ever Needed
DR13 0.00 dB -16.92 dB 4:06 05-Say Goodnight
DR12 0.00 dB -14.60 dB 3:07 06-Fool For Your Love
DR14 0.00 dB -17.74 dB 3:21 07-Even A Fool Would Let Go
DR14 0.00 dB -16.33 dB 3:43 08-Sweet Agony
DR14 0.00 dB -19.40 dB 3:12 09-I Knew You When
DR12 0.00 dB -14.18 dB 3:31 10-Packin' It Up
--------------------------------------------------------------------------------

Number of tracks: 10
Official DR value: DR13

Samplerate: 44100 Hz
Channels: 2
Bits per sample: 16
Bitrate: 979 kbps
Codec: ALAC
================================================================================
AHAFAN02

AHAFAN02

June 1, 2018
edited about 1 year ago
referencing Dolly, Dolly, Dolly, LP, Album, AHL1-3546
This album is usually listed by fans as her worst but it contains her best track of the 80's: the Donna Summer penned "Starting Over Again" (a top 40 pop hit). It's a shame she's never sung this live. It's haunting and beautiful and Dolly sings it with the exact amount of empathy the song requires. One of her best vocal deliveries. Sadly the album doesn't contain any more brilliant material although the rock sounding "Same Old Fool" and the ballad "Even A Fool Would See" is decent enough. "You're the Only One..." was a minor hit but it's not a song I enjoy. The rest of the material is just forgettable filler.