Abigail Williams ‎– In The Absence Of Light

Genre:
Style:
Year:

Tracklist

Hope, The Great Betrayal 6:47
Final Destiny Of The Gods 8:18
The Mysteries That Bind The Flesh 6:54
Infernal Divide 5:01
In Death Comes The Great Silence 6:20
What Hell Awaits Me 4:50
An Echo In Our Legends 5:02
Malediction 6:59

Versions (4)

Recommendations

Reviews

Add Review

Glennus

Glennus

November 28, 2019
referencing In The Absence Of Light, LP, Album, Ltd, Num, none
Sounds incredible, much better than the CD!

DR11 -0.42 dB -12.62 dB 6:34 01-Hope The Great Betrayal
DR11 -0.39 dB -12.05 dB 7:40 02-Final Destiny Of The Gods
DR10 -0.37 dB -12.62 dB 4:55 03-The Mysteries That Bind The Flesh
DR11 -0.55 dB -12.95 dB 4:45 04-Infernal Divide
DR11 -0.40 dB -11.86 dB 5:48 05-In The Death Comes The Great Silence
DR10 -0.77 dB -12.41 dB 4:38 06-What Hells Await Me
DR11 -0.78 dB -12.64 dB 6:46 07-An Echo In Our Legends
DR11 -1.30 dB -13.73 dB 6:44 08-Malediction