Bill Champlin ‎– Runaway

Genre:
Style:
Year:

Tracklist

Runaway 3:57
One Way Ticket 3:01
Sara 3:14
Tonight Tonight (Based On The Composition "My Everlasting Love") 3:53
Runaway Reprise 0:42
Take It Uptown 4:24
Satisfaction 3:42
Stop Knockin' On My Door 4:16
Gotta Get Back To Love 3:30
Without You 4:04
The Fool Is All Alone 4:30

Versions (16)

Cat# Artist Title (Format) Label Cat# Country Year
5E-563 Bill Champlin Runaway(LP, Album, All) Elektra 5E-563 US 1981 Sell This Version
5E 563 Bill Champlin Runaway(LP, Album) Elektra 5E 563 Australia 1981 Sell This Version
P-11098 Bill Champlin Runaway(LP, Album) Elektra P-11098 Japan 1981 Sell This Version
X5E-563 Bill Champlin Runaway(LP, Album) Elektra X5E-563 Canada 1981 Sell This Version
E-2942 Bill Champlin Runaway(LP, Album) Elektra E-2942 Venezuela 1981 Sell This Version
P-11098 Bill Champlin Runaway(LP, Album, Promo) Elektra P-11098 Japan 1981 Sell This Version
5E-563 Bill Champlin Runaway(LP, Album, Promo) Elektra 5E-563 US 1981 Sell This Version
5E-563 Bill Champlin Runaway(LP, Album, Spe) Elektra 5E-563 US 1981 Sell This Version
5E-563 Bill Champlin Runaway(LP, Album, TP) Elektra 5E-563 US 1981 Sell This Version
WPCP-3451 Bill Champlin Runaway(CD, Album, RE) Elektra WPCP-3451 Japan 1990 Sell This Version
WPCP-3451 Bill Champlin Runaway(CD, Album, RE) Elektra WPCP-3451 Japan 1990 Sell This Version
7559-60971-2 Bill Champlin Runaway(CD, Album, RE) Elektra 7559-60971-2 US 1996 Sell This Version
AMCY-3049 Bill Champlin Runaway(CD, Album, RE) Elektra AMCY-3049 Japan 1997 Sell This Version
VSCD-3506 Bill Champlin Runaway(CD, Album, Ltd, RE, RM, Pap) Elektra VSCD-3506 Japan 2010 Sell This Version
WPCR-17413 Bill Champlin Runaway(CD, Album, RE) Elektra WPCR-17413 Japan 2016 Sell This Version
7559-60971-2 Bill Champlin Runaway(CD, Album, RE) Elektra 7559-60971-2 Europe Unknown Sell This Version

Recommendations

Reviews

Add Review

ispace

ispace

December 25, 2018
referencing Runaway, CD, Album, RE, WPCP-3451
foobar2000 1.3.17 / Dynamic Range Meter 1.1.1
log date: 2018-12-26 13:44:47

--------------------------------------------------------------------------------
Analyzed: Bill Champlin / Runaway [JP 1990 CD]
--------------------------------------------------------------------------------

DR Peak RMS Duration Track
--------------------------------------------------------------------------------
DR11 -1.10 dB -14.41 dB 3:59 01-Runaway
DR12 -0.06 dB -14.79 dB 3:04 02-One Way Ticket
DR12 -0.99 dB -16.88 dB 3:15 03-Sara
DR13 -0.84 dB -17.44 dB 3:48 04-Tonight Tonight
DR14 -1.02 dB -18.96 dB 0:47 05-Runaway Reprise
DR13 0.00 dB -15.80 dB 4:24 06-Take It Uptown
DR13 -0.64 dB -15.90 dB 3:42 07-Satisfaction
DR13 -0.45 dB -15.66 dB 4:17 08-Stop Knockin' on My Door
DR13 -0.72 dB -17.92 dB 3:31 09-Gotta Get Back To Love
DR12 -1.81 dB -17.00 dB 4:06 10-Without You
DR12 -2.22 dB -18.33 dB 4:30 11-The Fool Is All Alone
--------------------------------------------------------------------------------

Number of tracks: 11
Official DR value: DR13

Samplerate: 44100 Hz
Channels: 2
Bits per sample: 16
Bitrate: 794 kbps
Codec: ALAC
================================================================================