Sheena Easton ‎– Take My Time

Genre:
Style:
Year:

Tracklist

Don't Send Flowers
Cry
Take My Time
When He Shines
One Man Woman
Prisoner
9 To 5
So Much In Love
Voice On The Radio
Calm Before The Storm
Modern Girl
No-One Ever Knows

Versions (44)

Cat# Artist Title (Format) Label Cat# Country Year
1A 062-07442 Sheena Easton Take My Time(LP, Album) EMI 1A 062-07442 Netherlands 1981 Sell This Version
16218 Sheena Easton Me Llevará Tiempo(Cass, Album) EMI 16218 Argentina 1981 Sell This Version
6218 Sheena Easton Me Llevará Tiempo(LP, Album) EMI 6218 Argentina 1981 Sell This Version
1 C 264-07 442 Sheena Easton Sheena Easton(Cass, Album, Dol) EMI Electrola 1 C 264-07 442 Germany 1981 Sell This Version
SLEM-995 Sheena Easton Take My Time = Toma mi tiempo(LP, Album) EMI SLEM-995 Mexico 1981 Sell This Version
ZR28-569 Sheena Easton Take My Time(Cass, Album) EMI ZR28-569 Japan 1981 Sell This Version
TC-EMC-335-1 Sheena Easton Take My Time(Cass, Album) EMI TC-EMC-335-1 Australia 1981 Sell This Version
TC-EMC-180 Sheena Easton Take My Time(Cass, Album) EMI TC-EMC-180 New Zealand 1981 Sell This Version
GS 2769 Sheena Easton Take My Time(Cass, Album, Unofficial) GS (2) GS 2769 Singapore 1981 Sell This Version
RC 4120 Sheena Easton Take My Time(Cass, Album, Unofficial) RC RC 4120 Asia 1981 Sell This Version
1C 064-07 442 Sheena Easton Take My Time(LP, Album) EMI, EMI Electrola 1C 064-07 442 Germany 1981 Sell This Version
EMIS-7641 Sheena Easton Take My Time(LP, Album) EMI EMIS-7641 Venezuela 1981 Sell This Version
EMC 3354, OC 062-07 442, EMC-3354 Sheena Easton Take My Time(LP, Album) EMI, EMI, EMI EMC 3354, OC 062-07 442, EMC-3354 Philippines 1981 Sell This Version
2C 068-07442 Sheena Easton Take My Time(LP, Album) EMI 2C 068-07442 France 1981 Sell This Version
5263, 32c 064-007442 Sheena Easton Take My Time(LP, Album) EMI, EMI 5263, 32c 064-007442 Chile 1981 Sell This Version
1C 064-07 442 Sheena Easton Take My Time(LP, Album) EMI, EMI Electrola 1C 064-07 442 Germany 1981 Sell This Version
1C 064-07442 Sheena Easton Take My Time(LP, Album) EMI, EMI Electrola 1C 064-07442 Germany 1981 Sell This Version
EMCJ(L) 5230 Sheena Easton Take My Time(LP, Album) EMI EMCJ(L) 5230 South Africa 1981 Sell This Version
EMS-91015 Sheena Easton Take My Time(LP, Album) EMI EMS-91015 Japan 1981 Sell This Version
7C 062-07442 Sheena Easton Take My Time(LP, Album) EMI 7C 062-07442 Sweden 1981 Sell This Version
1C 064-07442 Sheena Easton Take My Time(LP, Album) EMI, EMI Electrola 1C 064-07442 Germany 1981 Sell This Version
EMC 3354 Sheena Easton Take My Time(LP, Album) Portrait EMC 3354 Israel 1981 Sell This Version
3C 064-07442 Sheena Easton Take My Time(LP, Album) EMI 3C 064-07442 Italy 1981 Sell This Version
10C 064-007442 Sheena Easton Take My Time(LP, Album) EMI, EMI 10C 064-007442 Spain 1981 Sell This Version
EMC.3354, EMC-3354 Sheena Easton Take My Time(LP, Album) EMI, EMI EMC.3354, EMC-3354 Australia 1981 Sell This Version
14C 062-007442 Sheena Easton Take My Time(LP, Album) EMI 14C 062-007442 Greece 1981 Sell This Version
EMC 3354 Sheena Easton Take My Time(LP, Album) EMI EMC 3354 India 1981 Sell This Version
EMC 3354, OC 062-07 442 Sheena Easton Take My Time(LP, Album) EMI, EMI EMC 3354, OC 062-07 442 Ireland 1981 Sell This Version
1A 064-07442 Sheena Easton Take My Time(LP, Album) EMI 1A 064-07442 Netherlands 1981 Sell This Version
EMC 3354, OC 062-07 442 Sheena Easton Take My Time(LP, Album) EMI, EMI EMC 3354, OC 062-07 442 UK 1981 Sell This Version
EMS-91015 Sheena Easton Take My Time(LP, Album) EMI EMS-91015 Japan 1981 Sell This Version
LSEMI 70941, EMC 3354 Sheena Easton Take My Time(LP, Album) Jugoton, EMI LSEMI 70941, EMC 3354 Yugoslavia 1981 Sell This Version
EMS-91015 Sheena Easton Take My Time(LP, Album, Promo) EMI EMS-91015 Japan 1981 Sell This Version
14C 062-007442 Sheena Easton Take My Time(LP, Album, TP) EMI 14C 062-007442 Greece 1981 Sell This Version
EMC 3354, OC 062-07 442 Sheena Easton Take My Time(LP, Album, Tow) EMI, EMI EMC 3354, OC 062-07 442 UK 1981 Sell This Version
EMC 3354, OC 062-07 442 Sheena Easton Take My Time(LP, Album, Uto) EMI, EMI EMC 3354, OC 062-07 442 UK 1981 Sell This Version
32c 264-007442, 105263 Sheena Easton Toma Me Tiempo(Cass, Album) EMI, EMI 32c 264-007442, 105263 Spain 1981 Sell This Version
S-1931A Sheena Easton Take My Time(Cass, Album, RE, Unofficial) Foot Print S-1931A Malaysia 1982 Sell This Version
CP35-3058 Sheena Easton Take My Time(CD, Album, RE) EMI CP35-3058 Japan 1983 Sell This Version
CP21-6076 Sheena Easton Take My Time(CD, Album, RE) EMI CP21-6076 Japan 1989 Sell This Version
TOCP-3073 Sheena Easton Take My Time(CD, Album, RE) EMI TOCP-3073 Japan 1995 Sell This Version
CR POP 32 Sheena Easton Take My Time(CD, Album, RE) Cherry Pop CR POP 32 UK 2009 Sell This Version
CR POP 32 Sheena Easton Take My Time(CD, Album, RE) Cherry Pop CR POP 32 UK 2009 Sell This Version
11C 076-07422 Sheena Easton Take My Time(LP, Album) EMI 11C 076-07422 Portugal Unknown Sell This Version

Recommendations

Reviews Show All 2 Reviews

Add Review

chunky66

chunky66

October 29, 2020
referencing Take My Time, LP, Album, EMC 3354, OC 062-07 442
i have a variation of this irish pressing, same matrix runout, different EMI labels.
ispace

ispace

February 12, 2020
referencing Take My Time, CD, Album, RE, CR POP 32
Excellent mastering Cherry Pop!!

foobar2000 1.4.4 / Dynamic Range Meter 1.1.1
log date: 2020-02-12 20:24:06

--------------------------------------------------------------------------------
Analyzed: Sheena Easton / Take My Time [UK Cherry Pop 1981/2009 CD]
--------------------------------------------------------------------------------

DR Peak RMS Duration Track
--------------------------------------------------------------------------------
DR13 0.00 dB -15.68 dB 3:02 01-Don't Send Flowers
DR14 0.00 dB -16.10 dB 3:32 02-Cry
DR14 0.00 dB -15.94 dB 2:39 03-Take My Time
DR13 -0.74 dB -19.98 dB 3:56 04-When He Shines
DR12 0.00 dB -14.76 dB 3:07 05-One Man Woman
DR13 -0.49 dB -16.19 dB 3:35 06-Prisoner
DR12 0.00 dB -14.21 dB 3:21 07-9 To 5
DR13 -0.39 dB -16.67 dB 3:04 08-So Much In Love
DR13 -0.52 dB -16.22 dB 3:18 09-Voice On the Radio
DR14 -4.97 dB -23.10 dB 3:29 10-Calm Before The Storm
DR13 -1.46 dB -16.39 dB 3:37 11-Modern Girl
DR12 -1.34 dB -18.07 dB 3:47 12-No One Ever Knows
DR11 -2.71 dB -19.64 dB 2:41 13-Paradox
DR11 -3.77 dB -19.70 dB 2:07 14-Moody (My Love)
DR12 -2.17 dB -17.80 dB 3:25 15-Summer's Over
DR14 0.00 dB -15.88 dB 3:17 16-Right Or Wrong
--------------------------------------------------------------------------------

Number of tracks: 16
Official DR value: DR13

Samplerate: 44100 Hz
Channels: 2
Bits per sample: 16
Bitrate: 890 kbps
Codec: ALAC
================================================================================