Abigail Williams ‎– The Accuser

Genre:
Style:
Year:

Tracklist

Path Of Broken Glass 5:30
The Cold Lines 3:48
Of The Outer Darkness 7:16
Will, Wish And Desire 5:58
Godhead 7:08
Forever Kingdom Of Dirt 6:42
Lost Communion 4:04
Nuummite 4:48

Versions (5)

Cat# Artist Title (Format) Label Cat# Country Year
CANDLE405CD Abigail Williams The Accuser(CD, Album) Candlelight Records CANDLE405CD UK 2015 Sell This Version
CDL535CD Abigail Williams The Accuser(CD, Album) Candlelight Records USA CDL535CD US 2015 Sell This Version
none Abigail Williams The Accuser(CDr, Album, Promo, PE ) Candlelight Records none Netherlands 2015 Sell This Version
none Abigail Williams The Accuser(LP, Album, Ltd, Num) Fire Walk Records none US 2019 Sell This Version
none Abigail Williams The Accuser(LP, TP) Not On Label none US 2019 Sell This Version

Recommendations

Reviews Show All 3 Reviews

Add Review

Glennus

Glennus

December 1, 2019
referencing The Accuser, LP, Album, Ltd, Num, none
Sounds a lot less muddy than the original CD.

DR10 -0.13 dB -11.29 dB 5:09 01-Path Of Broken Glass
DR10 -0.69 dB -12.79 dB 3:40 02-The Cold Lines
DR10 -0.79 dB -11.98 dB 7:21 03-Of The Outer Darkness
DR10 -1.79 dB -13.33 dB 5:53 04-Will, Wish And Desire
DR10 0.00 dB -10.54 dB 6:44 05-Godhead
DR10 -1.06 dB -12.43 dB 6:38 06-Forever Kingdom Of Dirt
DR10 -1.42 dB -12.27 dB 3:49 07-Lost Communion
DR11 -2.47 dB -14.65 dB 4:37 08-Nuummite
TheSecretWeapon

TheSecretWeapon

December 11, 2018
referencing The Accuser, CD, Album, CANDLE405CD
Yes, how is this still not released on vinyl? It's been quite a while
thombron

thombron

December 28, 2016
referencing The Accuser, CD, Album, CANDLE405CD
Why is this great record still not released as vinyl?