Ad

Supersonic Blues MachineWest Of Flushing South Of Frisco

Genre:Rock
Style:Blues Rock
Year:

Tracklist

Miracle Man
I Ain't Fallin' Again
Running Whiskey
Remedy
Bone Bucket Blues
Let It Be 
That's My Way
Ain't No Love (In The Heart Of The City)
Nightmares And Dreams
Can't Take It No More
Whiskey Time (Running Whiskey's Extended Ending)
Let's Call It A Day
Watchagonnado

Credits (18)

Versions

Filter by
    6 versions
    Image, In Your Collection, Wantlist, or Inventory
    Version DetailsData Quality
    Cover of West Of Flushing South Of Frisco, 2015, CDWest Of Flushing South Of Frisco
    CD, Album, Promo
    Provogue – PRD7478220152015
    New Submission
    Cover of West Of Flushing South Of Frisco, 2016-02-26, VinylWest Of Flushing South Of Frisco
    2×LP, Album, Stereo, 180 Gram
    Provogue – PRD74781USA & Europe2016USA & Europe2016
    New Submission
    Cover of West Of Flushing South Of Frisco, 2016-02-26, CDWest Of Flushing South Of Frisco
    CD, Album, Stereo
    Provogue – PRD74782Europe2016Europe2016
    Recently Edited
    Cover of West Of Flushing South Of Frisco, 2016, CDWest Of Flushing South Of Frisco
    CD, Album, Unofficial Release
    Provogue (2) – PRD74782Russia2016Russia2016
    New Submission
    Cover of West Of Flushing South Of Frisco, 2016, CDWest Of Flushing South Of Frisco
    CD, Album, Promo
    Provogue – PRDPROMO478, Mascot Label Group – PRDPROMO478Europe2016Europe2016
    New Submission
    Cover of West Of Flushing South Of Frisco, 2022, VinylWest Of Flushing South Of Frisco
    2×LP, Album, Reissue, Stereo, Natural Transparent
    Provogue – PRD747812Worldwide2022Worldwide2022
    New Submission

    Recommendations

    Reviews

    • Kotoamatsukami's avatar
      The product fully meets the description.Thank you very much , I was very pleased .
      • phonobox's avatar
        phonobox
        This is one of my most compressed records!
        It sounds really ugly.
        Hey Fabrizio Grossi:
        "You must be deaf - so please don´t produce any records anymore!"

        --------------------------------------------------------------------------------
        Analyzed: Supersonic Blues Machine / West of Flushing, South of Frisco (Vinyl)
        --------------------------------------------------------------------------------

        DR Peak RMS Duration Track
        --------------------------------------------------------------------------------
        DR10 -0.30 dB -12.30 dB 4:24 A1-Miracle Man
        DR9 -1.48 dB -12.22 dB 3:30 A2-I Ain't Fallin' Again
        DR9 -1.33 dB -11.66 dB 2:41 A3-Running Whiskey
        DR9 -0.91 dB -11.32 dB 5:43 B1-Remedy
        DR10 -0.30 dB -11.58 dB 3:13 B2-Bone Bucket Blues
        DR9 -0.68 dB -11.64 dB 5:25 B3-Let It Be
        DR10 -0.30 dB -12.17 dB 4:52 C1-That's My Way
        DR10 -1.38 dB -13.19 dB 5:26 C2-Ain't No Love (In The Heart Of The City)
        DR9 -1.58 dB -11.70 dB 4:44 C3-Nightmares And Dreams
        DR9 -0.70 dB -10.70 dB 6:13 D1-Can't Take It No More
        DR9 -0.30 dB -10.79 dB 2:14 D2-Whiskey Time (Running Whiskey's Extended Ending)
        DR9 -1.42 dB -12.59 dB 3:32 D3-Let's Call It A Day
        DR10 -1.54 dB -12.85 dB 3:49 D4-Watchagonnado
        --------------------------------------------------------------------------------

        Number of tracks: 13
        Official DR value: DR9

        Samplerate: 192000 Hz
        Channels: 2

        Master Release

        Edit Master Release
        Recently Edited

        For sale on Discogs

        Sell a copy

        Statistics

        • Avg Rating:4.37 / 5
        • Ratings:90
        Ad

        Videos (7)

        Edit
        Ad
        Ad