The Manhattan Transfer ‎– Extensions

Genre:
Style:
 
Year:

Versions (38)

Cat# Artist Title (Format) Label Cat# Country Year
SD 19258 The Manhattan Transfer Extensions(LP, Album, SP) Atlantic SD 19258 US 1979 Sell This Version
CS 19258 The Manhattan Transfer Extensions(Cass, Album) Atlantic CS 19258 US 1979 Sell This Version
K 450674, K450674 The Manhattan Transfer Extensions(Cass, Album) Atlantic, Atlantic K 450674, K450674 UK 1979 Sell This Version
K 450674, K450674 The Manhattan Transfer Extensions(Cass, Album) Atlantic, Atlantic K 450674, K450674 UK 1979 Sell This Version
CS-19258 The Manhattan Transfer Extensions(Cass, Album, D, ) Atlantic CS-19258 Canada 1979 Sell This Version
CS 19258 The Manhattan Transfer Extensions(Cass, Album, Dol) Atlantic CS 19258 Scandinavia 1979 Sell This Version
S 90.186 The Manhattan Transfer Extensions(LP, Album) Atlantic S 90.186 Spain 1979 Sell This Version
QSD 19258 The Manhattan Transfer Extensions(LP, Album) Atlantic QSD 19258 Canada 1979 Sell This Version
S 90.186 The Manhattan Transfer Extensions(LP, Album) Atlantic S 90.186 Spain 1979 Sell This Version
ATC9745 The Manhattan Transfer Extensions(LP, Album) Atlantic ATC9745 South Africa 1979 Sell This Version
ATL 50674, SD 19258 The Manhattan Transfer Extensions(LP, Album) Atlantic, Atlantic ATL 50674, SD 19258 Scandinavia 1979 Sell This Version
P-10772A The Manhattan Transfer Extensions(LP, Album) Atlantic P-10772A Japan 1979 Sell This Version
SD 19258 The Manhattan Transfer Extensions(LP, Album) Atlantic SD 19258 New Zealand 1979 Sell This Version
ATL 50 674 The Manhattan Transfer Extensions(LP, Album) Atlantic ATL 50 674 Germany 1979 Sell This Version
ATL 50 674 The Manhattan Transfer Extensions(LP, Album) Atlantic ATL 50 674 Europe 1979 Sell This Version
SD 19258 The Manhattan Transfer Extensions(LP, Album) Atlantic SD 19258 Australia 1979 Sell This Version
W 50674 The Manhattan Transfer Extensions(LP, Album) Atlantic W 50674 Italy 1979 Sell This Version
ATL 50 674 The Manhattan Transfer Extensions(LP, Album) Atlantic ATL 50 674 Germany 1979 Sell This Version
K 50674, K50674 The Manhattan Transfer Extensions(LP, Album) Atlantic, Atlantic K 50674, K50674 UK 1979 Sell This Version
23(7031)0021 The Manhattan Transfer Extensions(LP, Album) Atlantic 23(7031)0021 Colombia 1979 Sell This Version
QSD 19258 The Manhattan Transfer Extensions(LP, Album) Atlantic QSD 19258 Canada 1979 Sell This Version
SD 19258 The Manhattan Transfer Extensions(LP, Album) Atlantic SD 19258 Scandinavia 1979 Sell This Version
SD 19258 The Manhattan Transfer Extensions(LP, Album, MO) Atlantic SD 19258 US 1979 Sell This Version
208759 The Manhattan Transfer Extensions(LP, Album, SP) Atlantic 208759 Argentina 1979 Sell This Version
SD 19258 The Manhattan Transfer Extensions(LP, Album, SP) Atlantic SD 19258 Philippines 1979 Sell This Version
GM-200.2734, Lps. 200.2734 The Manhattan Transfer Extensions(LP, Album) Atlantic, Atlantic GM-200.2734, Lps. 200.2734 Venezuela 1980 Sell This Version
LWA-5435 The Manhattan Transfer Extensions(LP, Album) Atlantic LWA-5435 Mexico 1981 Sell This Version
MFSL 1-199 The Manhattan Transfer Extensions(LP, Album, Ltd, Num, RE, RM) Mobile Fidelity Sound Lab MFSL 1-199 US 1994 Sell This Version
UDCD 578 The Manhattan Transfer Extensions(CD, Album, RE, RM, 24 ) Mobile Fidelity Sound Lab, Atlantic, Rhino Records (2) UDCD 578 US 1995 Sell This Version
JPCD9804223 The Manhattan Transfer Extensions(CD, Unofficial) Not On Label (The Manhattan Transfer) JPCD9804223 Russia 1997 Sell This Version
WPCR-14462 The Manhattan Transfer Extensions(CD, Album, RE, RM, Pap) Atlantic WPCR-14462 Japan 2012 Sell This Version
781 565-2 The Manhattan Transfer Extensions(CD, Album) Atlantic 781 565-2 Germany Unknown Sell This Version
19258-2 The Manhattan Transfer Extensions(CD, Album, RE) Atlantic 19258-2 US Unknown Sell This Version
7567-81565-2 The Manhattan Transfer Extensions(CD, Album, RE) Atlantic 7567-81565-2 Europe Unknown Sell This Version
CS-19258 The Manhattan Transfer Extensions(Cass, Album, RE, CR,) Atlantic CS-19258 Canada Unknown Sell This Version
CS-19258 The Manhattan Transfer Extensions(Cass, Album, RE, R, ) Atlantic CS-19258 Canada Unknown Sell This Version
4255 The Manhattan Transfer Extensions(Cass, Album, Unofficial) 747 4255 Saudi Arabia Unknown Sell This Version
SD 19258 The Manhattan Transfer Extensions(LP, Album) Atlantic SD 19258 Scandinavia Unknown Sell This Version

Recommendations

Reviews

Add Review

ispace

ispace

July 11, 2018
referencing Extensions, CD, Album, RE, 19258-2
foobar2000 1.3.17 / Dynamic Range Meter 1.1.1
log date: 2018-07-11 19:44:01

--------------------------------------------------------------------------------
Analyzed: The Manhattan Transfer / Extensions
--------------------------------------------------------------------------------

DR Peak RMS Duration Track
--------------------------------------------------------------------------------
DR14 -1.31 dB -19.13 dB 6:02 01-Birdland
DR14 -1.57 dB -17.96 dB 3:09 02-Wacky Dust
DR13 0.00 dB -17.19 dB 4:29 03-Nothin' You Can Do About It
DR14 -2.32 dB -18.30 dB 2:15 04-Coo Coo U
DR13 -1.94 dB -18.50 dB 4:29 05-Body And Soul
DR14 -1.48 dB -18.39 dB 6:07 06-Twilight Zone / Twilight Tone
DR13 -1.58 dB -16.05 dB 2:21 07-Trickle Trickle
DR12 -2.12 dB -17.69 dB 4:33 08-Shaker Song
DR12 -4.88 dB -19.04 dB 3:53 09-Foreign Affair
--------------------------------------------------------------------------------

Number of tracks: 9
Official DR value: DR13

Samplerate: 44100 Hz
Channels: 2
Bits per sample: 16
Bitrate: 765 kbps
Codec: ALAC
================================================================================