David Sanborn ‎– As We Speak

Genre:
Style:
Year:

Versions (26)

Cat# Artist Title (Format) Label Cat# Country Year
9 23650-1, 1-23650 David Sanborn As We Speak(LP, Album) Warner Bros. Records, Warner Bros. Records 9 23650-1, 1-23650 US 1982 Sell This Version
23650-4 David Sanborn As We Speak(Cass, Album) Warner Bros. Records 23650-4 US 1982 Sell This Version
92 36504 David Sanborn As We Speak(Cass, Album) Warner Bros. Records 92 36504 Canada 1982 Sell This Version
92 36501, 92 36501 CR David Sanborn As We Speak(LP, Album) Warner Bros. Records, Warner Bros. Records 92 36501, 92 36501 CR Canada 1982 Sell This Version
WB 56975, WB K 56 975, 23650-1 David Sanborn As We Speak(LP, Album) Warner Bros. Records, Warner Bros. Records, Warner Bros. Records WB 56975, WB K 56 975, 23650-1 Germany 1982 Sell This Version
604.7029 David Sanborn As We Speak(LP, Album) Warner Bros. Records 604.7029 Brazil 1982 Sell This Version
1-23650, 9 23650-1 David Sanborn As We Speak(LP, Album) Warner Bros. Records, Warner Bros. Records 1-23650, 9 23650-1 US 1982 Sell This Version
1 23650, 1-23650 David Sanborn As We Speak(LP, Album) Warner Bros. Records, Warner Bros. Records 1 23650, 1-23650 Australia 1982 Sell This Version
604.7029, 26.089 David Sanborn As We Speak(LP, Album) Warner Bros. Records, Warner Bros. Records 604.7029, 26.089 Brazil 1982 Sell This Version
WB 56975 David Sanborn As We Speak(LP, Album) Warner Bros. Records WB 56975 France 1982 Sell This Version
92 36501, 92036501 CR David Sanborn As We Speak(LP, Album) Warner Bros. Records, Warner Bros. Records 92 36501, 92036501 CR Canada 1982 Sell This Version
WB 56975 David Sanborn As We Speak(LP, Album) Warner Bros. Records WB 56975 Europe 1982 Sell This Version
56975 David Sanborn As We Speak(LP, Album) Warner Bros. Records 56975 Greece 1982 Sell This Version
WB 56975, K 56975 David Sanborn As We Speak(LP, Album) Warner Bros. Records, Warner Bros. Records WB 56975, K 56975 Europe 1982 Sell This Version
P-11137 David Sanborn As We Speak(LP, Album) Warner Bros. Records P-11137 Japan 1982 Sell This Version
W1 23650 David Sanborn As We Speak(LP, Album, Club) Warner Bros. Records W1 23650 US 1982 Sell This Version
9 23650-1, 1-23650 David Sanborn As We Speak(LP, Album, Promo) Warner Bros. Records, Warner Bros. Records 9 23650-1, 1-23650 Japan 1982 Sell This Version
56975 David Sanborn As We Speak(LP, Album, TP) Warner Bros. Records 56975 Greece 1982 Sell This Version
9 23650-1, 1-23650 David Sanborn As We Speak(LP, Album, RE) Warner Bros. Records, Warner Bros. Records 9 23650-1, 1-23650 US 1983 Sell This Version
923 650-2 David Sanborn As We Speak(CD, Album, RE) Warner Bros. Records 923 650-2 Germany 1987 Sell This Version
32XD-743 David Sanborn As We Speak(CD, Album, RE) Warner Bros. Records 32XD-743 Japan 1987 Sell This Version
56975 David Sanborn As We Speak(LP, Album, RE) Warner Bros. Records 56975 Spain 1987 Sell This Version
WPCR-28070 David Sanborn As We Speak(CD, Album, Ltd, RE, RM) Warner Bros. Records WPCR-28070 Japan 2014 Sell This Version
9 23650-2, D116660 David Sanborn As We Speak(CD, Album, Club, RE) Warner Bros. Records, BMG Direct Marketing, Inc. 9 23650-2, D116660 US Unknown Sell This Version
9 23650-2 David Sanborn As We Speak(CD, Album, RE) Warner Bros. Records 9 23650-2 US Unknown Sell This Version
7599-23650-2 David Sanborn As We Speak(CD, Album, RE) Warner Bros. Records 7599-23650-2 Europe Unknown Sell This Version

Recommendations

Reviews

Add Review

ispace

ispace

May 16, 2018
referencing As We Speak, CD, Album, RE, 9 23650-2
foobar2000 1.3.17 / Dynamic Range Meter 1.1.1
log date: 2018-05-16 21:22:34

--------------------------------------------------------------------------------
Analyzed: David Sanborn / As We Speak
--------------------------------------------------------------------------------

DR Peak RMS Duration Track
--------------------------------------------------------------------------------
DR14 -1.15 dB -16.66 dB 4:29 01-Port Of Call
DR15 -1.53 dB -19.38 dB 3:31 02-Better Believe It
DR14 -0.56 dB -18.00 dB 4:44 03-Rush Hour
DR13 -0.30 dB -16.93 dB 4:13 04-Over And Over
DR13 -0.51 dB -16.17 dB 3:53 05-Back Again
DR16 -0.24 dB -19.02 dB 4:18 06-As We Speak
DR15 -0.01 dB -18.22 dB 3:27 07-Straight To The Heart
DR15 -0.75 dB -19.50 dB 4:48 08-Rain On Christmas
DR13 0.00 dB -18.14 dB 6:17 09-Love Will Come Someday
--------------------------------------------------------------------------------

Number of tracks: 9
Official DR value: DR14

Samplerate: 44100 Hz
Channels: 2
Bits per sample: 16
Bitrate: 764 kbps
Codec: ALAC
================================================================================