Ad

Release

Marketplace

33 For Sale from $29.49
Ad
Ad

Statistics

  • Last Sold:

  • Lowest:

    $27.91
  • Median:

    $37.79
  • Highest:

    $54.78

Videos (31)

Edit
Ad

Pink FloydDelicate Sound Of Thunder

Label:Pink Floyd Records – PFRLP16, Parlophone – 190295996932
Format:
2 x Vinyl, LP, Album, Reissue, Remastered, 180 Gram, Gatefold
Country:Europe
Released:
Genre:Rock
Style:Psychedelic Rock, Prog Rock

Tracklist

A1Shine On You Crazy Diamond Parts 1-5
Written-ByGilmour*, Wright*, Waters*
11:45
A2Learning To Fly
Written-ByMoore*, Ezrin*, Gilmour*, Carin*
5:07
A3Yet Another Movie
Written-ByGilmour*, Leonard*
A4Round And Around
Written-ByGilmour*
B1Sorrow
Written-ByGilmour*
9:44
B2The Dogs Of War
Written-ByMoore*, Gilmour*
7:13
B3On The Turning Away
Written-ByMoore*, Gilmour*
7:35
C1One Of These Days
Written-ByGilmour*, Mason*, Wright*, Waters*
6:17
C2Time / Breathe (In The Air) (Reprise)
Written-ByGilmour*, Mason*, Wright*, Waters*
5:18
C3Money
Written-ByWaters*
9:42
C4Another Brick In The Wall Part II
Written-ByWaters*
5:17
D1Wish You Were Here
Written-ByGilmour*, Waters*
4:50
D2Comfortably Numb
Written-ByGilmour*, Waters*
8:42
D3Run Like Hell
Written-ByGilmour*, Waters*
6:42
Ad

Companies, etc.

Credits

Notes

the sticker, the cover and the label shows "Breathe in the air (reprise)" but the song is not present.

Barcode and Other Identifiers

  • Barcode (Printed): 0 190295 996932
  • Matrix / Runout (Runout side A, etched): 0190295996932A H² BG
  • Matrix / Runout (Runout side B, etched): 0190295996932B H² BG
  • Matrix / Runout (Runout side C, etched): 0190295996932C H² BG
  • Matrix / Runout (Runout side D, etched): 0190295996932D H² BG
  • Matrix / Runout (Runout side A, stamped): 18897 2A
  • Matrix / Runout (Runout side B, stamped): 18897 2B
  • Matrix / Runout (Runout side C, stamped): 18897 2C
  • Matrix / Runout (Runout side D, stamped): 18897 2D

Other Versions (5 of 274)View All

Title (Format)LabelCat#CountryYear
Delicate Sound Of Thunder (2×CD, Album, Stereo)EMI, EMICDS 7914802, CDEQ 5009Europe1988
Delicate Sound Of Thunder (2×LP, Album)EMI, EMI ElectrolaEQ 5009, 7 91480 1Germany1988
Delicate Sound Of Thunder (2×CD, Album)ColumbiaC2K 44484US1988
Delicate Sound Of Thunder (2×LP, Album)EMI-Odeon, S.A.79 1481 1Spain1988
Delicate Sound Of Thunder (2×LP, Album, Stereo, EMI Pressing)EMI, EMIEQ 5009, 7914801UK1988
Glennus's profile picture
Glennus
Mine sounds absolutely flawless. I couldn't find any distortion that shouldn't be there, either. As to this release sounding compressed, get out of here. This one of the most dynamic vinyl pressings ever.

DR15 0.00 dB -19.03 dB 11:59 01-Shine On You Crazy Diamond
DR15 0.00 dB -16.67 dB 5:21 02-Learning To Fly
DR13 -1.60 dB -18.04 dB 6:16 03-Yet Another Movie
DR9 -8.52 dB -24.78 dB 0:55 04-Round And Around
DR13 -1.07 dB -17.83 dB 10:03 05-Sorrow
DR14 0.00 dB -16.80 dB 7:13 06-The Dogs Of War
DR14 -0.13 dB -18.86 dB 7:56 07-On The Turning Away
DR15 0.00 dB -18.61 dB 6:11 08-One Of These Days
DR14 -0.03 dB -16.96 dB 5:11 09-Time
DR14 0.00 dB -18.09 dB 9:49 10-Money
DR16 -0.29 dB -19.20 dB 5:34 11-Another Brick In The Wall (Part II)
DR14 -0.71 dB -19.44 dB 4:58 12-Wish You Were Here
DR14 0.00 dB -16.17 dB 8:54 13-Comfortably Numb
DR13 0.00 dB -16.76 dB 6:58 14-Run Like Hell
ZackPlonk's profile picture
ZackPlonk
Just got this and checked for the distortion on Sorrow, couldn't hear it using an Ortofon OM40 pickup. Since that big low guitar sound, especially in the outro, is very powerful I thought this might be something that might be quite a task for some pickups. I had a OM5e stylus around and tried with that and I am hearing some minor distortions with that. So maybe that pressing of that track is reaching the limits of the tracking ability of some simpler pickups/styluses...
bq-sounds's profile picture
bq-sounds
Some albums stand the test of time. This is one of those granite monuments to music. A relic that seems even more relevant now than when it was produced. This double LP reissue remastered from the original analogue tapes is all around excellent. Freedom rock at its best. This live show is up to par with 'Pulse.' Both deserve a place in a Pink Floyd connoisseur's collection.
jamilmac99's profile picture
jamilmac99
Edited one year ago
Well, looks like I’m sticking to my NM original pressing! They should fix this somehow and reissue the record. Too bad! At least the rest of the reissue run was pretty damn solid.
Wigbold2005's profile picture
Wigbold2005
Some people complain about (slight) distortion on side 2 of LP1. My copy sounds realy great, also on that side (without distortion). It sounds a lot better then my old LP from 1988.
dev_lin's profile picture
dev_lin
I agree there's something wrong with LP1 side2, especially "Sorrow" but not sure what it is. Some kind of slight distortion in higher tones. However it is not audible throughout the whole side and it's not that awful after all. Heard worse. Other than that it's a great record.
bengou's profile picture
bengou
I have an old original copy and I can say that new copy is quite good compared to the old one.
I also have the issue with the side 2 of disc1, it is awful.
All other side are OK.
BTOUSAFAN's profile picture
BTOUSAFAN
Really? Just got a copy and this sounds great. Much better than the original pressing and don't get me started on the CD or cassette copies.
DJRobbyRobbRob's profile picture
DJRobbyRobbRob
I'm listening to "Sorrow," first track on Disc 01 Side 02, and HOLY SHIT, does this ever sound like garbage.

AWFUL. Just as others have stated: digital crap distortion.

(The original compact discs are a million times better than this tripe)
jonnyslb's profile picture
jonnyslb
Edited 3 years ago
Well I've listen this album two times by now, and I can say about the quality of this reissue that by now is my least favorite of all reissues ( I don' t have ACoGDS). There is some improvement in the sound, it is more sharp, more clear, the bass in some songs is more noticeable, altought there's a bad side, in some songs the guitar is very high and there's some distortion. This caracteristic is also similar in the old pressings, but a little more noticeable in this version. This would be ok, but in my copy the 2nd Side has a huge problem, during Sorrow, The Dogs of War and On the Turning Away, there's some sort of feeback in the higher notes that is very unpleasant. I share this situation with you to see if somebody has that too. By now it's me and ricolek that aparantely that have this issue! Maybe I will exchange for another copy. Altought my copy has some dirt on it, but without any scratch, after some cleaning it was ok!