Ad

Joseph WilliamsEarly Years

Joseph Williams - Early Years album cover

Label:Tricycle Entertainment – TNCP-6
Format:
CD, Album
Country:Japan
Released:
Genre:Rock, Pop
Style:AOR

Tracklist

1Running On A Deadline5:16
2Never Be The Same3:51
3Pump Jockeys4:49
4Fire Power4:48
5I'm Holding On To You Forever4:41
6Pretty Face4:40
7Running In The Dark4:15
8Reckless Heart4:40
9Hold Me Down3:26
10Times Have Changed2:43
Ad

Companies, etc.

Notes

Unreleased demos recorded 1980-1990.

Originally released in December 1998 as a gift to Japanese fan club members.

Barcode and Other Identifiers

  • Barcode: 4 538736 310064
  • Matrix / Runout: TNCP-6- 1R U

Other Versions (2)

View All
Title (Format)LabelCat#CountryYear
New Submission
Early Years (CD, Album)Nubieboyz RecordsNB42591US1999
Recently Edited
Early Years (CD, Album)WHD Entertainment, Inc.IECP-10157Japan2008

Reviews

  • ispace's avatar
    ispace
    foobar2000 1.3.17 / Dynamic Range Meter 1.1.1
    log date: 2018-04-23 16:37:26

    --------------------------------------------------------------------------------
    Analyzed: Joseph Williams / Early Years
    --------------------------------------------------------------------------------

    DR Peak RMS Duration Track
    --------------------------------------------------------------------------------
    DR9 -0.10 dB -10.76 dB 5:19 01-Running On A Deadline
    DR9 -0.10 dB -10.50 dB 3:54 02-Never Be The Same
    DR9 -0.10 dB -9.90 dB 4:50 03-Pump Jockeys
    DR8 -0.10 dB -9.81 dB 4:51 04-Fire Power
    DR9 -0.70 dB -11.42 dB 4:43 05-I'm Holding On To You Forever
    DR9 -0.60 dB -10.91 dB 4:42 06-Pretty Face
    DR9 -0.80 dB -11.21 dB 4:17 07-Running In The Dark
    DR9 -0.40 dB -11.30 dB 4:43 08-Reckless Heart
    DR9 -0.10 dB -11.08 dB 3:30 09-Hold Me Down
    DR8 -0.30 dB -9.61 dB 2:44 10-Times Have Changed
    --------------------------------------------------------------------------------

    Number of tracks: 10
    Official DR value: DR9

    Samplerate: 44100 Hz
    Channels: 2
    Bits per sample: 16
    Bitrate: 1013 kbps
    Codec: ALAC
    ================================================================================

    Release

    Marketplace

    6 For Sale from $35.38
    Ad
    Ad

    Statistics

    • Have:14
    • Want:15
    • Avg Rating:5 / 5
    • Ratings:1
    • Last Sold:
    • Lowest:$13.78
    • Median:$34.39
    • Highest:$55.00

    Videos (11)

    Edit

    Lists

      Contributors

      Ad