Tim Curry ‎– Simplicity

Label:
Bad Reputation ‎– BAD171001
Format:
CD, Album, Reissue, Remastered
Country:
Released:
Genre:
Style:
 

Tracklist

Side One
1 Working On My Tan 4:05
2 She's Not There 2:22
3 Simplicity 4:13
4 On A Roll 2:49
5 Take Me I'm Yours 3:50
Side Two
6 Dancing In The Streets 3:59
7 Betty Jean 3:20
8 Out Of Pawn 3:43
9 Summer In The City 3:05
10 I Put A Spell On You 3:32
Bonus Tracks
11 Alan (Live)
12 Simple Twist Of Fate (Live)

Companies, etc.

Credits

Notes

Originally released in 1981.

From the booklet:
“This LP was Tim Curry’s third and, as it turned out, final album as a solo artist.”

Jewel case release including an eight page booklet.

Barcode and Other Identifiers

  • Barcode (Text): 3 341348 052755
  • Barcode (Scanned): 3341348052755
  • Matrix / Runout: CA BAD171001 @@ 11/7/2017 8:19:14 AM 0001300499
  • Mastering SID Code: IFPI LY88
  • Mould SID Code: IFPI 1262
  • Rights Society: SACEM
  • Rights Society: SDRM
  • Rights Society: SGDL
  • Rights Society: ASCAP
  • Rights Society: BMI

Other Versions (5 of 14) View All

Cat# Artist Title (Format) Label Cat# Country Year
SP-4830 Tim Curry Simplicity(LP, Album, RP) A&M Records SP-4830 US 1981 Sell This Version
AMLH 64830 Tim Curry Simplicity(LP, Album) A&M Records AMLH 64830 UK 1981 Sell This Version
AMLH 64830 Tim Curry Simplicity(LP, Album) A&M Records AMLH 64830 Greece 1981 Sell This Version
AMLH 64830, SP-4830 Tim Curry Simplicity(LP, Album) A&M Records, A&M Records AMLH 64830, SP-4830 Netherlands 1981 Sell This Version
SP-4830 Tim Curry Simplicity(LP, Album) A&M Records SP-4830 US 1981 Sell This Version

Recommendations

Reviews

Add Review

ispace

ispace

April 27, 2020
Terrible dynamic range, poorly remastered by Jean-Yves Legrand. The label's name is accurate.

foobar2000 1.4.4 / Dynamic Range Meter 1.1.1
log date: 2020-04-27 20:44:49

--------------------------------------------------------------------------------
Analyzed: Tim Curry / Simplicity [FR 1981/2017 CD]
--------------------------------------------------------------------------------

DR Peak RMS Duration Track
--------------------------------------------------------------------------------
DR6 0.00 dB -7.83 dB 4:08 01-Working On My Tan
DR6 -0.01 dB -6.68 dB 2:24 02-She's Not There
DR6 -0.01 dB -8.41 dB 4:19 03-Simplicity
DR6 -0.01 dB -7.24 dB 2:51 04-On A Roll
DR7 -0.01 dB -8.21 dB 3:46 05-Take Me I'm Your's
DR6 0.00 dB -7.09 dB 3:01 06-Dancing In The Streets
DR7 -0.01 dB -8.02 dB 3:23 07-Betty Jean
DR6 0.00 dB -7.83 dB 3:45 08-Out Of Pawn
DR6 -0.01 dB -7.03 dB 3:07 09-Summer In The City
DR6 -0.01 dB -8.56 dB 3:33 10-I Put A Spell On You
DR7 -0.01 dB -11.47 dB 5:44 11-Alan (Live at The Bottom Line NYC July 26th, 1979)
DR7 -0.01 dB -8.95 dB 5:32 12-Simple Twist Of Fate (Live at The Old Waldorf Nightclub, 1978)
--------------------------------------------------------------------------------

Number of tracks: 12
Official DR value: DR6

Samplerate: 44100 Hz
Channels: 2
Bits per sample: 16
Bitrate: 911 kbps
Codec: ALAC
================================================================================