Ad

Release

Edit Release
Recently Edited

Marketplace

51 For Sale from $0.51
Ad
Ad

Statistics

  • Have:309
  • Want:41
  • Avg Rating:4.07 / 5
  • Ratings:61

Videos (1)

Edit
Ad

Guy OrnadelMuzik Magazine Presents Guy Ornadel's Progressive Session

Label:Muzik Magazine – MUZIK GUY MIX 2000
Format:
CD, Mixed
Country:UK
Released:
Genre:Electronic
Style:Progressive House, Progressive Trance

Tracklist

1.1LuminancePlutonium (Novacane Mix)
ProducerLuminance
RemixNovacane
Written-ByMirko van Dommelen
1.2Body-ShockFull Moon
ProducerDJ Ghost, L-Vee
Written-ByGhost*, Vee*
1.3NatiousFlashpoint
ProducerNatious
Producer [Additional]Christian West
Written-ByT. Ratcliffe*
1.4Venus Inc*Complicated (Force Mass Motion Club Mix)
ProducerVenus Inc*
Written-ByHennigan*, Brannigan*, Bricheno*
1.5AirwaveEscape From Nowhere
ProducerLaurent Veronnez*
Written-ByVeronnez*
1.6AvatarMachine Life (Alternator Mix)
EngineerPete Martin
Written-ByVan Der Vlugt*, Martin*
1.7DJ Tiesto*Sparkles (Starecase Mix)
RemixStarecase
Written-ByFijneman*, Tiesto*
1.8PulserCloudwalking
ProducerAndy Perring
Written-ByA. Perring*
1.9TransaAstro Dawn
ProducerTransa
Written-ByWebster*, Webster*
1.10AmethystFuture (2000) (Danny Howells Remix)
Producer, Engineer, RemixAmethyst
RemixDanny Howells
Written-ByHorrocks*, Milleare*
1.11PeppersonicIn My Brain Now
Producer, Recorded By, Mixed BySam Paganini
VocalsBarbera
Written-ByPaganini*
Ad

Companies, etc.

Credits

Notes

The mix is one continuous track total duration being 60:04
Comes with Muzik Mag 59

1: Mixongs. (P)+(C) 2000 Avant Garde. Original version available on Avant Garde Records
2: BMG Universal Music Publishing, Bonzai Music. Licensed from Big Fish Ltd/Lightning Records NV. (P)+(C) 2000 Bonzai. Original version available on Bonzai Records.
3: Copyright Control. (P)+(C) 2000 Amato International. Original version available on Amato Records.
4: Copyright Control. (P)+(C) 1999 Convert Recording. Original version available on Convert Records.
5: BMG Universal Music Publishing, Bonzai Music. Licensed from Big Fish Ltd/Lightning Records NV. (P)+(C) 1999 Bonzai. Original version available on Bonzai Records.
6: Copyright Control. Engineered @ Slide Studios, London. (P)+(C) 2000 Dragonfly Records. Original version available on Dragonfly Records.
7: Allure Muzik / Magik Muzik. (P) 1999 Blackhole Recordings. Licensed courtesy of Virgin Records Ltd / Nebula
8: Copyright Control. (P)+(C) 1999 Trance Communications
9: Copyright Control. (P)+(C) 1999 Hook Records. Original version available on Hook Records.
10: 7pm Music, Sony-ATV. (P)+(C) 2000 The Great Jackpot Records Ltd. Taken from the album "Golden Fish Fever" (Jackpot). Distributed by Vital
11: Undiscovered Publishing Ltd. Recorded, Producer and Mixed @ Cellar Rock Studio. (P)+(C) 2000 EVE Nova Records. Under exclusive license to EVE Records from Undiscovered Recordings. EVE Nova is a member of EVE Records Group.

Barcode and Other Identifiers

  • Matrix / Runout: S MUZIKGUYMIX 01 DISCTRONICS
  • Mastering SID Code: IFPI L502
  • Mould SID Code: IFPI 8708

Reviews

  • adamalada's avatar
    adamalada
    In my opinion, Guy Ornadel was the unsung hero of 90s-00s UK clubbing. While he was always playing at the likes of Gatecrasher, Godskitchen etc, people didn't go as wild for him as say PvD or Armin. This sound has certainly stood the test of time and still sounds as fresh as it did back in 2000. Probably better than most dance music today.
    • mooby.guo's avatar
      mooby.guo
      This is the disc that simply changed my world. When I bought the issue I was 21, now I'm 40. Still listen to it every once in a while.
      • mrbens's avatar
        mrbens
        Managed to find this for a couple of quid on ebay. As it is one unsplit mix I have loaded it into CDWave to create cue points for splitting it. Useful so I can scrobble to Lastfm. TagScanner can pull the tag info directly from Discogs too for proper track names and album art. Pasting here as it may be helpful to others:

        FILE "Guy Ornadel's Progressive Session.flac" WAVE
        TRACK 01 AUDIO
        INDEX 01 00:00:00
        TRACK 02 AUDIO
        INDEX 01 06:21:37
        TRACK 03 AUDIO
        INDEX 01 12:19:58
        TRACK 04 AUDIO
        INDEX 01 18:29:56
        TRACK 05 AUDIO
        INDEX 01 24:36:16
        TRACK 06 AUDIO
        INDEX 01 30:08:33
        TRACK 07 AUDIO
        INDEX 01 35:26:56
        TRACK 08 AUDIO
        INDEX 01 40:59:17
        TRACK 09 AUDIO
        INDEX 01 46:15:64
        TRACK 10 AUDIO
        INDEX 01 50:25:19
        TRACK 11 AUDIO
        INDEX 01 56:24:66
        • chazza78's avatar
          chazza78
          Really good mix.Would like to find more by this Guy! ahem...