Ad

Release

Marketplace

6 For Sale from $10.13
Ad
Ad

Statistics

  • Have:40
  • Want:58
  • Avg Rating:4.1 / 5
  • Ratings:10
  • Last Sold:
  • Lowest:$8.86
  • Median:$30.37
  • Highest:$113.92

Videos (6)

Edit

Lists

    Ad

    Re-Flex (2)The Politics Of Dancing

    Label:Cherry Pop – WCRPOPD192, Cherry Red – WCRPOPD192
    Format:
    CD, Album, Reissue
    CD, Compilation
    All Media, Remastered, Expanded Edition
    Country:UK
    Released:
    Genre:Electronic
    Style:New Wave, Synth-pop

    Tracklist

    1-1Praying To The Beat3:40
    1-2Hitline3:40
    1-3Hurt5:10
    1-4Couldn't Stand A Day4:12
    1-5The Politics Of Dancing6:38
    1-6Something About You3:40
    1-7Pointless3:54
    1-8Jungle5:26
    1-9Sensitive3:26
    1-10Keep In Touch6:00
    1-11Cruel World (12" Extended Version)5:35
    1-12The Politics Of Dancing (7" Single Version)4:18
    1-13Cruel World (7" Spanish Version)4:20
    2-1Flex-it (B Side Of US 12" Version)5:28
    2-2The Politics Of Dancing (U.S. 7" Single Version)3:59
    2-3Flex-it (U.S. 7" Single Version)3:58
    2-4Hitline (12" Extended Mix)4:59
    2-5Hurt (U.S. 7" Single Version)3:43
    2-6Hurt (U.S. 12" Promo Rubber Dubber Mix)9:29
    2-7Hurt (U.S. 12" Promo Emotional John Luongo Re-mix)
    RemixJohn Luongo
    6:49
    2-8Hurt (Emotional Pete Smith Re-mix)
    RemixPete Smith
    5:35
    2-9Cut It3:13
    2-10Praying To The Beat (12" Extended Version)4:08
    2-11Cut It (12" Extended Version)4:23
    2-12 What You Deserve (7" Single Version)4:23
    Ad

    Companies, etc.

    Credits

    Notes

    Jewel case with 16-page booklet featuring liner notes, photos and UK discography.

    Subsequently withdrawn and reissued as The Politics Of Dancing due to feedback from Paul Fishman and improved master sources.

    Barcode and Other Identifiers

    • Barcode (Text): 5 013929 439283 >
    • Barcode (Scanned): 5013929439283
    • Matrix / Runout (Disc 1): CA WCRPOPD192CD1 @@ IFPI LY88 10/10/2018 9:40:08 AM 0001367358
    • Matrix / Runout (Disc 2): CA WCRPOPD192CD2 @@ IFPI LY88 10/10/2018 6:55:03 AM 0001367359
    • Mastering SID Code: IFPI LY88
    • Mould SID Code (Disc 1): IFPI 1285
    • Mould SID Code (Disc 2): IFPI 1280

    Other Versions (5 of 45)View All

    Title (Format)LabelCat#CountryYear
    Recently Edited
    The Politics Of Dancing (LP, Album, Stereo)EMIEMC 2400181UK1983
    Recently Edited
    The Politics Of Dancing (Cassette, Album)EMITC-EMC 2400184UK1983
    Recently Edited
    The Politics Of Dancing (LP, Album)EMI, Capitol Records1C 064 2400181Europe1983
    Recently Edited
    The Politics Of Dancing (LP, Album)Capitol RecordsST-12314US1983
    Recently Edited
    The Politics Of Dancing (LP, Album)EMI64 2400181Italy1983

    Reviews

    kanduboy80's avatar
    kanduboy80
    there could have been at least five singles , love the mixes .
    The_Titan_Find's avatar
    No-one should be unduly put-off by this version. Although the subsequent reissue is far better, this one still sounds great, despite any sourcing issues.
    ispace's avatar
    ispace
    Withdrawn 2018 reissue with several mastering errors & tracks sourced from vinyl

    foobar2000 1.3.17 / Dynamic Range Meter 1.1.1
    log date: 2018-11-29 20:05:31

    --------------------------------------------------------------------------------
    Analyzed: Re-Flex / The Politics Of Dancing [2018 Cherry Pop CD - Disc 1]
    --------------------------------------------------------------------------------

    DR Peak RMS Duration Track
    --------------------------------------------------------------------------------
    DR10 -0.20 dB -11.54 dB 3:40 01-Praying To The Beat
    DR10 -0.20 dB -11.21 dB 3:40 02-Hit Line
    DR10 -0.20 dB -12.63 dB 5:10 03-Hurt
    DR11 -0.20 dB -12.56 dB 4:12 04-Couldn't Stand A Day
    DR10 -0.20 dB -12.33 dB 6:38 05-The Politics Of Dancing
    DR11 -0.20 dB -12.00 dB 3:40 06-Something About You
    DR10 -0.20 dB -12.74 dB 3:54 07-Pointless
    DR10 -0.20 dB -12.33 dB 5:26 08-Jungle
    DR11 -0.20 dB -12.57 dB 3:26 09-Sensitive
    DR11 -0.20 dB -12.41 dB 6:00 10-Keep In Touch
    DR10 -0.20 dB -11.71 dB 5:35 11-Cruel World (12" Extended Version)
    DR10 -0.19 dB -11.63 dB 4:18 12-The Politics Of Dancing (7" Single Version)
    DR10 -0.20 dB -12.27 dB 4:20 13-Cruel World (7" Spanish Version)
    --------------------------------------------------------------------------------

    Number of tracks: 13
    Official DR value: DR10

    Samplerate: 44100 Hz
    Channels: 2
    Bits per sample: 16
    Bitrate: 920 kbps
    Codec: ALAC
    ================================================================================

    foobar2000 1.3.17 / Dynamic Range Meter 1.1.1
    log date: 2018-11-29 20:06:21

    --------------------------------------------------------------------------------
    Analyzed: Re-Flex / The Politics Of Dancing [2018 Cherry Pop CD - Disc 2]
    --------------------------------------------------------------------------------

    DR Peak RMS Duration Track
    --------------------------------------------------------------------------------
    DR9 -0.20 dB -11.58 dB 5:28 01-Flex-It (B-Side Of US 12" Version)
    DR9 -0.20 dB -11.31 dB 3:59 02-The Politics Of Dancing (U.S. 7" Single Version)
    DR9 -0.20 dB -11.60 dB 3:58 03-Flex-It (U.S. 7" Single Version)
    DR10 -0.20 dB -12.06 dB 4:59 04-Hitline (12" Extended Version)
    DR10 -0.20 dB -12.08 dB 3:43 05-Hurt (U.S. 7" Single Version)
    DR11 -0.20 dB -13.74 dB 9:29 06-Hurt (U.S. 12" Promo Rubber Dubber Mix)
    DR10 -0.20 dB -12.92 dB 6:49 07-Hurt (U.S. 12" Promo Emotional John Luongo Re-Mix)
    DR10 -0.20 dB -12.26 dB 5:35 08-Hurt (Emotional Pete Smith Re-Mix)
    DR10 -0.20 dB -12.32 dB 3:13 09-Cut It
    DR10 -0.20 dB -11.23 dB 4:08 10-Praying To The Beat (12" Extended Version)
    DR10 -0.20 dB -12.72 dB 4:23 11-Cut It (12" Extended Version)
    DR10 -0.20 dB -12.34 dB 4:22 12-What You Deserve (7" Single Version)
    --------------------------------------------------------------------------------

    Number of tracks: 12
    Official DR value: DR10

    Samplerate: 44100 Hz
    Channels: 2
    Bits per sample: 16
    Bitrate: 1006 kbps
    Codec: ALAC
    ================================================================================
    darkwaves's avatar
    darkwaves
    What happened to cause this release to become scarce so soon?