Ad

Release

Marketplace

41 For Sale from $37.08
Ad
Ad

Statistics

  • Last Sold:

  • Lowest:

    $32.88
  • Median:

    $37.54
  • Highest:

    $66.36

Videos (15)

Edit
Ad

Porcupine TreeThe Incident

Label:Tonefloat – tf82
Format:
2 x Vinyl, LP, Album, 180gr
Country:Europe
Released:
Genre:Rock
Style:Prog Rock

Tracklist

The Incident
A1Occam's Razor1:55
A2The Blind House5:47
A3Great Expectations1:26
A4Kneel And Disconnect2:03
A5Drawing The Line4:43
B1The Incident5:20
B2Your Unpleasant Family1:48
B3The Yellow Windows Of The Evening Train2:00
B4Time Flies11:40
C1Degree Zero Of Liberty1:45
C2Octane Twisted
Music ByPorcupine Tree
5:03
C3The Séance2:39
C4Circle Of Manias
Music ByPorcupine Tree
2:18
C5I Drive The Hearse6:41
-
D1Flicker
Music ByPorcupine Tree
3:42
D2Bonnie The Cat
Music ByPorcupine Tree
5:45
D3Black Dahlia
Music ByRichard Barbieri
3:40
D4Remember Me Lover7:28
Ad

Companies, etc.

Credits

Notes

This is the regular 180 grams vinyl edition, housed in gatefold sleeve.

Also released as a Special edition limited to 2000 numbered copies worldwide.
The special edition includes a 48-page 12inch book. Each disc is housed in a separate picture sleeve, and everything is packaged in custom printed PVC slipcase.

Written and recorded between September 2008 - May 2009 at Air Lyndhurst, Monkey Puzzle, No-Man's Land, Bourne Place, The Artillery, Nightspace, and Red Room Recorders.
Additional guitars recorded at Red Room Recorders.

Mastered from the original 24-bit audio files.

℗ 2009 tonefloat. © 2009 tonefloat. marketed by crazy diamond

richard barbieri uses the roland v synth series
gavin harrison exclusively uses sonor drums, zildjian cymbals, vic firth sticks, remo heads, hardcase, axis pedals, puresound and s-hoops
steven wilson uses paul reed smith guitars, alumisonic guitars, babicz acoustic guitars, bad cat amplifiers, ernie ball strings and jaffa cakes

dedicated to the late great michael piper

additional samples sourced from the freesound project used under the creative commons sampling plus license. credits -
girls singing-pish_01wav - studiorat
pray.mp3 - wingz
haram.mp3 - ejaz215

Barcode and Other Identifiers

  • Barcode: 8716059002057
  • Matrix / Runout (Side A, etched): 84914 1A TF82
  • Matrix / Runout (Side B, etched): 84914 1B TF82
  • Matrix / Runout (Side C, etched): 84914 1C TF82
  • Matrix / Runout (Side D, etched): 84914 1D TF82
  • Rights Society: STEMRA

Other Versions (5 of 25)View All

Title (Format)LabelCat#CountryYear
The Incident (2×LP, Album, Limited Edition, Numbered)Tonefloattf82Europe2009
The Incident (2×CD, Album, DVD, DVD-Video, Multichannel, Box Set, Limited Edition)Roadrunner RecordsRR 7857-82009
The Incident (2×CD, Album)Roadrunner RecordsRR 7857-2UK & Europe2009
The Incident (2×CD, Album)Roadrunner Records1686-178572US2009
The Incident (2×CD, Album)Roadrunner Records1686-178572Canada2009

Reviews

beelulzebub's profile picture
beelulzebub
Edited 6 months ago
Anyone else's copy have the music cut out completely for half a rotation once SW's vocals start on The Incident? About a half second of silence I'd say. I thought it could've been something with my record, but it's brand new, perfectly clean, and totally flat. Almost sounds like it's on the master side. Doesn't appear like the needle is skipping grooves, as it's literally just a blank spot and doesn't sound like the needle is skipping.

This otherwise sounds absolutely perfect.
Xandovisck's profile picture
Xandovisck
Excellent pressing, quiet, good dynamics, very balanced, excellent graphic material, musical quality does not require comments.
Glennus's profile picture
Glennus
Sounds wonderful!

DR10 -1.34 dB -17.58 dB 1:55 01-Occam's Razor
DR12 -1.32 dB -15.88 dB 5:46 02-The Blind House
DR11 -1.44 dB -15.70 dB 1:28 03-Great Expectations
DR12 -4.38 dB -21.03 dB 2:00 04-Kneel And Disconnect
DR12 -1.13 dB -15.33 dB 4:45 05-Drawing The Line
DR12 -1.10 dB -15.65 dB 5:19 06-The Incident
DR12 -2.07 dB -16.19 dB 1:43 07-Your Unpleasant Family
DR10 -2.77 dB -29.00 dB 2:05 08-The Yellow Windows Of The Evening Train
DR11 -1.22 dB -15.10 dB 11:43 09-Time Flies
DR10 -1.24 dB -16.02 dB 1:45 10-Degree Zero Of Liberty
DR12 -0.51 dB -15.87 dB 5:02 11-Octane Twisted
DR11 -5.73 dB -21.20 dB 2:39 12-The Séance
DR11 -1.05 dB -14.04 dB 2:19 13-Circle Of Manias
DR13 -0.87 dB -19.29 dB 6:39 14-I Drive The Hearse
DR12 -0.86 dB -15.59 dB 3:39 15-Flicker
DR13 -1.12 dB -16.23 dB 5:44 16-Bonnie The Cat
DR11 -1.28 dB -16.47 dB 3:44 17-Black Dahlia
DR11 -0.86 dB -15.68 dB 7:22 18-Remember Me Lover