Ad

Release

Marketplace

59 For Sale from $129.00
Ad
Ad

Statistics

  • Have:1084
  • Want:246
  • Avg Rating:4.77 / 5
  • Ratings:83
  • Last Sold:
  • Lowest:$129.00
  • Median:$165.79
  • Highest:$186.99

Videos (7)

Edit
Ad

Tool (2)Fear Inoculum

Label:Tool Dissectional – 19439868791, RCA – 19439868791, Sony Music – 19439868791
Format:
Box Set, Album, Deluxe Edition, Limited Edition, Reissue
5 x Vinyl, LP, Single Sided, Etched, 180 gram
Country:Europe
Released:
Genre:Rock
Style:Progressive Metal, Prog Rock

Tracklist

A1Fear Inoculum
A2Pneuma
C1Invincible
E1Legion Inoculant
E2Descending
G1Culling Voices
G2Chocolate Chip Trip
I17empest
I2Mockingbeat
Ad

Companies, etc.

Credits

Notes

First official release on vinyl advertised as the 'Ultra Deluxe LP'.
Records housed inside a full-colour, mirror-board printed, hardcover book featuring alternate front cover artwork, extra artwork, lyrics and credits all within a full-colour, mirror-board printed hardcover o-card stye slipcase box, although not advertised as a box set.
Issued with a gold foil sticker and a barcode sticker featuring extra company logos, company credits and 'MADE IN THE EU.' statement attached to the shrink wrap.

* Sides B, D, F, H and J feature no music and are etched.

℗ 2019 & © 2021 Tool Dissectional, L.L.C./Volcano Entertainment II, L.L.C., Distributed By Sony Music Entertainment. Sony Music Entertainment International Services GmbH, P.O. Box 510, 33311 Gütersloh, Germany.
Made in the EU. BIEM/GEMA / LC00316 /19439868791

Recorded & mixed by [...] on 2" analog tape & transferred digitally to Evil Joe Tools.

Alex Grey Art: 'Vision Crystal Tondo," 2015 - "The Torch," 2019 - "The Great Turn" [Study], 2019.

This submission is for the EU version of the release. There is an US release that does not credit Sony Music as a label and other differences of distribution listed on the small print of the sticker. That release can be found here - Tool (2) - Fear Inoculum

Barcode and Other Identifiers

  • Barcode (Stickered; Printed): 1 9439-86879-1 9
  • Barcode (Stickered; Scanned): 0194398687919
  • Label Code: LC00316
  • Rights Society: BIEM/GEMA
  • Matrix / Runout (Runout side A): 19439-86879-1-SIDE A CB 222296E1 1085238 MRP3095/19439-86879-1/AB-A
  • Matrix / Runout (Runout side C): 19439-86879-1-SIDE C CB 222296E3 1128273 MRP3095/19439-86879-1/CD-A
  • Matrix / Runout (Runout side E): 19439-86879-1-SIDE E CB 222296E5 1100325 MRP3095/19439-86879-1/EF-A
  • Matrix / Runout (Runout side G): 19439-86879-1-G CB 222296E7 1142179 MRP3095/19439-86879-1/GH-A
  • Matrix / Runout (Runout side I): 19439-86879-1-SIDE I CB 222296E9 922697 MRP3095/19439-86878-1/IJ-A

Other Versions (5 of 64)View All

Title (Format)LabelCat#CountryYear
Recently Edited
Fear Inoculum (CD, Album, Limited Edition, Special Edition, Variant 1)Tool Dissectional, RCA19075-95055-2US2019
Recently Edited
Fear Inoculum (10×File, MP3, Album, 320 kbps)RCA Records Labelnone2019
Recently Edited
Fear Inoculum (10×File, FLAC, Album, 24bit-96kHz)RCA Records Labelnone2019
Recently Edited
Fear Inoculum (10×File, WAV, Album, 24bit/96kHz)RCA Records Labelnone2019
Fear Inoculum (CD, Album, Limited Edition, Special Edition, Variant 1)Tool Dissectional, RCA, Sony Music, Tool Dissectional, RCA, Sony Music19075-95055-2, 19075 95055 2Europe2019
entity279's avatar
entity279
Mastering is at least one level up from the digital version, which was already good.
VigilanteFox's avatar
VigilanteFox
The worst tool album of all time. Repetitive and extremely boring. I mean, where's the feel of the pot, sober, Vicarious, schism, stinkfist, sex prison?
Bombus76's avatar
Bombus76
Bought this for $245 AUD in April of 2022. Amazing packaging and solid sounding vinyl. Really quality pressing. Only using one side of each LP and etching the other side is a great artistic touch and novel idea although you do have to change out the LP’s more frequently. But seriously, who cares. I love this album and the mix here is u real. Loud and clear with crunching guitar and punchy bass. Classic Tool and worth the expense for an awesome quality set. The box and booklet style record sleeve is beautiful quality. Stoked with my purchase and the many hours of listening pleasure this will bring.
LaziosPresident's avatar
A perfect album! Awesome musicianship, songs and production. One of the greatest releases of all time.
Glennus's avatar
Glennus
Simply amazing. That's all I'm going to say.

DR13 -0.48 dB -16.12 dB 10:14 01-Fear Inoculum
DR12 -0.02 dB -16.16 dB 11:51 02-Pneuma
DR12 -0.01 dB -14.96 dB 12:40 03-Invincible
DR9 -2.32 dB -15.89 dB 3:12 04-Legion Inoculant
DR13 0.00 dB -15.76 dB 13:33 05-Descending
DR12 0.00 dB -17.46 dB 10:03 06-Culling Voices
DR12 0.00 dB -17.17 dB 4:49 07-Chocolate Chip Trip
DR12 -0.03 dB -13.64 dB 15:38 08-7empest
DR15 -6.34 dB -26.88 dB 2:06 09-Mockingbeat
wbrent666's avatar
wbrent666
When they say "limited release", what are the official numbers?
nwobhm's avatar
nwobhm
Mine came with a extra Tool Fear Inoculum slipmat from Sony Belgium.(not in the box)
Amazing looking box set btw.
mrakeno.svp's avatar
mrakeno.svp
I have to leave my comment here. Again. There have been two releases for this boxset EU and US. Then they have been merged (dunno why). Now again listed as EU and US. Mine version is EU.

Where to start? Packaging is top notch, high quality paper, print, polylined innersleeves. Box from heavy cardboard with nice almost metallic like print. Sound. Totally different story when compared to hi-res release or stream. Digital versions sound is flat. Just boring when compared to vinyl. Vinyl sound has big punch. Its just incredible when Maynard start sings or just talk, you have feeling he is with you in your room. Drums has weight, can clearly hear the response of drum membrane during each hit. Bass guitar and guitar have just incredible spark. This is awesome mix and its properly mastered. Energy which is coming out from your speakers during spinning this vinyl is insane. Vinyl itself was in my case pristine, all 5 discs came totally flat, clean. If I forget those few tiny pops, its perfect sounding record. Groove noise is very quiet. Almost inaudible during listening via speakers. Via headphones it can be heard clearly, but its quite standard. I think that this is definitive edition of the album. Maybe MoFi one-step vinyl and 45 rpm could bring a bit more, but its only speculation. This is incredible release for which was worth the wait and I love it from its first spin. Cheers.
FaQ84's avatar
FaQ84
As posted on April 9, 2022 in the Fear Inoculum (Ex-worldwide release, now US), I'll leave here my review aswell:

FaQ84 Apr 9, 2022

Well, what can I say!?! What a f*cking masterpiece this is!!! Ever since its release in 2019, I was praying for a vinyl reissue, I have been tempted several seeeeeveral times to buy a bootleg copy but I didn't, I was waiting for this one and maaaaan, it blew my mind! I can't believe the quality of this copies, no surface sound, the whole sound spectrum is unbeliavable!!! Bass, mids & highs are fantastic, you can almost savor them, touch them, feel them! The whole presentation is completely worthy, their artwork, the etchings, what a fantastic mindblowing collectable item!
Jan_discogs's avatar
Jan_discogs
Great album that sounds fantastic. It cost a lot of money, but for me was worth it indoubtley. One of my biggest gems on my collection.