Ad

Kenny LogginsVox Humana

Label:Columbia – CK 39174
Format:
CD, Album, Repress
Country:US
Released:
Genre:Rock
Style:Pop Rock

Tracklist

1Vox Humana
BassNathan East
Lyrics ByEva Ein Loggins
Music By, Lyrics By, Acoustic Guitar, Guitar [Solo]Kenny Loggins
SynthesizerSteve Wood (2)
4:09
2No Lookin' Back
GuitarMichael Landau
Guitar [Solo]Tim Pierce
Keyboards, SynthesizerMichael Omartian
Music By, Lyrics ByEd Sanford, Kenny Loggins, Michael McDonald
4:48
3Let There Be Love
Lyrics ByDean Pitchford
Music ByNathan East
Music By, Lyrics ByKenny Loggins
Programmed By [Synthesizers]Steve Wood (2)
4:05
4I'll Be There
Backing VocalsBunny DeBarge, Eldra DeBarge*
GuitarMichael Landau
Lyrics ByEva Ein Loggins
Music By, Keyboards, SynthesizerDavid Foster
Music By, Lyrics ByKenny Loggins
PercussionPaulinho Da Costa
Programmed By [Yamaha DX-1]Eric Bulling*
SynthesizerMichael Boddicker
4:00
5I'm Gonna Do It Right
Backing VocalsPointer Sisters
BassNathan East
CabasaSheila E.
GuitarPaul Jackson Jr.
Music By, Lyrics ByKenny Loggins
PercussionPaulinho Da Costa
4:40
6Forever
DrumsTris Imboden
GuitarBuzzy Feiton*
Guitar [Solo]Steve Lukather
KeyboardsSteve Wood (2)
Lyrics ByEva Ein Loggins
Music By, KeyboardsDavid Foster
Music By, Lyrics ByKenny Loggins
4:23
7At Last
Lyrics ByEva Ein Loggins
Music ByDavid Foster
Music By, BassNathan East
Music By, Lyrics By, KeyboardsKenny Loggins
Programmed ByBo Tomlyn
SynthesizerRandy Waldman
3:53
8Loraine
DrumsTris Imboden
GuitarMichael Landau
Lyrics ByEva Ein Loggins
Music By, KeyboardsDavid Foster
Music By, Lyrics ByKenny Loggins
Programmed By [Synthesizers]Steve Porcaro
4:28
9Love Will Follow
Backing VocalsDonna McDaniels*, Marilyn Martin
BassNathan East
Music ByTom Snow
Music By, Lyrics ByKenny Loggins
Programmed ByDerek Nakamoto
SaxophoneDavid Sanborn
SynthesizerGreg Phillinganes
Synthesizer [Fairlight CMI, DX7]John Barnes
6:20
Ad

Companies, etc.

Credits

Barcode and Other Identifiers

  • Barcode: 07464391742
  • Matrix / Runout: IFPI L424 DIDP-020222 F4 1B 04
  • Mastering SID Code: IFPI L424
  • Mould SID Code: IFPI 7225
  • Other (DADC Code): DIDP 020222

Other Versions (5 of 42)

View All
Title (Format)LabelCat#CountryYear
Vox Humana (LP, Album)CBSCBS 26221Netherlands1985
New Submission
Vox Humana (LP, Album)ColumbiaFC 39174Canada1985
New Submission
Vox Humana (LP, Album)Discos CBS138624Brazil1985
Vox Humana (LP, Album)ColumbiaFC 39174US1985
New Submission
Vox Humana (LP, Album)CBS26221Portugal1985

Reviews

  • ispace's avatar
    ispace
    foobar2000 1.3.17 / Dynamic Range Meter 1.1.1
    log date: 2018-05-06 16:01:24

    --------------------------------------------------------------------------------
    Analyzed: Kenny Loggins / Vox Humana
    --------------------------------------------------------------------------------

    DR Peak RMS Duration Track
    --------------------------------------------------------------------------------
    DR7 -3.82 dB -14.18 dB 4:12 01-Vox Humana
    DR13 0.00 dB -14.76 dB 4:51 02-No Lookin' Back
    DR11 -0.81 dB -14.51 dB 4:08 03-Let There Be Love
    DR8 -4.68 dB -14.99 dB 4:03 04-I'll Be There
    DR12 -2.39 dB -16.98 dB 6:28 05-I'm Gonna Do It Right
    DR13 0.00 dB -16.51 dB 4:26 06-Forever
    DR9 -4.97 dB -16.58 dB 3:55 07-At Last
    DR13 0.00 dB -14.57 dB 4:31 08-Loraine
    DR12 -0.54 dB -14.65 dB 7:14 09-Love Will Follow
    --------------------------------------------------------------------------------

    Number of tracks: 9
    Official DR value: DR11

    Samplerate: 44100 Hz
    Channels: 2
    Bits per sample: 16
    Bitrate: 845 kbps
    Codec: ALAC
    ================================================================================

    Release

    Marketplace

    4 For Sale from $8.00
    Ad
    Ad

    Statistics

    • Have:47
    • Want:8
    • Avg Rating:3.67 / 5
    • Ratings:6

    Videos (6)

    Edit

    Lists

      Ad