Ad

Devin TownsendLightwork

Label:Inside Out Music – IOM624, Sony Music – 19658724451, HevyDevy Records – IOM624
Format:
2 x Vinyl, LP, Album, Orange [Transparent Orange]
Vinyl, LP, Album, Orange [Transparent Orange]
CD, Album
CD, Album
Blu-ray, Album
Box Set, Deluxe Edition, Limited Edition
Country:USA & Europe
Released:
Genre:Rock
Style:Progressive Metal, Prog Rock

Tracklist

Lightwork
A1Moonpeople
A2Lightworker
A3Equinox
B1Call Of The Void
B2Heartbreaker
B3Dimensions
C1Celestial Signals
C2Heavy Burden
C3Vacation
DChildren Of God
Nightwork
E1Starchasm, Pt. 2
E2Stampys Blaster
E3Factions
E4Yogi
E5Precious Sardine
F1Hope Is In The World
F2Children Of Dog
F3Sober
F4Boogus
F5Carry Me Home
Lightwork
CD1-1Moonpeople
CD1-2Lightworker
CD1-3Equinox
CD1-4Call Of The Void
CD1-5Heartbreaker
CD1-6Dimensions
CD1-7Celestial Signals
CD1-8Heavy Burden
CD1-9Vacation
CD1-10Children Of God
Nightwork
CD2-1Starchasm, Pt. 2
CD2-2Stampys Blaster
CD2-3Factions
CD2-4Yogi
CD2-5Precious Sardine
CD2-6Hope Is In The World
CD2-7Children Of Dog
CD2-8Sober
CD2-9Boogus
CD2-10Carry Me Home
-
BD-1Moonpeople (5.1 Mix)
BD-2Lightworker (5.1 Mix)
BD-3Equinox (5.1 Mix)
BD-4Call Of The Void (5.1 Mix)
BD-5Heartbreaker (5.1 Mix)
BD-6Dimensions (5.1 Mix)
BD-7Celestial Signals (5.1 Mix)
BD-8Heavy Burden (5.1 Mix)
BD-9Vacation (5.1 Mix)
BD-10Children Of God (5.1 Mix)
BD-11Moonpeople (Commentary Track)
BD-12Lightworker (Commentary Track)
BD-13Equinox (Commentary Track)
BD-14Call Of The Void (Commentary Track)
BD-15Heartbreaker (Commentary Track)
BD-16Dimensions (Commentary Track)
BD-17Celestial Signals (Commentary Track)
BD-18Heavy Burden (Commentary Track)
BD-19Vacation (Commentary Track)
BD-20Children Of God (Commentary Track)
Ad

Companies, etc.

Notes

Comes with 2 artcards and 36-page perfect bound booklet.

Barcode and Other Identifiers

  • Barcode (Text): 1 96587 24451 4
  • Barcode (Scanned): 196587244514
  • Label Code: LC 01414
  • Matrix / Runout (CD1): AM75991-01 manufactured by optimal media GmbH
  • Mastering SID Code (CD1): IFPI L576
  • Mould SID Code (CD1): IFPI 9718
  • Matrix / Runout (CD2): AM78703-01 manufactured by optimal media GmbH
  • Mastering SID Code (CD2): IFPI L576
  • Mould SID Code (CD2): IFPI 9718
  • Matrix / Runout (BD): EM78705-01 manufactured by optimal media GmbH
  • Mastering SID Code (BD): IFPI L579
  • Mould SID Code (BD, label side): IFPI 9756

Other Versions (5 of 14)

View All
Title (Format)LabelCat#CountryYear
New Submission
Lightwork (2×LP, Album, Yellow [Transparent Sun Yellow], 180g, CD, Album, All Media, Limited Edition, Stereo)Inside Out Music, Sony Music, HevyDevy RecordsIOM624, 19439966361Worldwide2022
New Submission
Lightwork (2×LP, Album, White, 180g, CD, Album, All Media, Limited Edition)Inside Out Music, Sony Music, HevyDevy RecordsIOM624, 19439966361USA & Europe2022
New Submission
Lightwork (2×LP, Album, 180g, CD, Album)Inside Out Music, Sony Music, HevyDevy RecordsIOM624, 19439966361Worldwide2022
New Submission
Lightwork (2×LP, Album, Lilac, 180g, CD, Album, All Media, Limited Edition)Inside Out Music, Sony Music, HevyDevy RecordsIOM624, 19439966361Europe2022
Lightwork (20×File, AAC, Album, Deluxe Edition, 256kbps)HevyDevy RecordsnoneWorldwide2022

Recommendations

Reviews

  • GlennusGoat's avatar
    GlennusGoat
    What a stellar pressing! So dynamic!

    DR12 -0.04 dB -17.43 dB 4:42 01-Moonpeople
    DR13 -0.11 dB -16.96 dB 5:29 02-Lightworker
    DR14 -0.66 dB -17.48 dB 4:55 03-Equinox
    DR13 -1.24 dB -17.23 dB 5:50 04-Call Of The Void
    DR12 -0.88 dB -16.01 dB 6:59 05-Heartbreaker
    DR13 -0.04 dB -16.87 dB 5:23 06-Dimensions
    DR12 -0.17 dB -14.88 dB 5:11 07-Celestial Signals
    DR12 -1.61 dB -17.65 dB 4:21 08-Heavy Burden
    DR15 -3.77 dB -20.07 dB 3:12 09-Vacation
    DR13 -0.37 dB -17.57 dB 10:03 10-Children Of God
    DR12 -1.65 dB -15.02 dB 4:34 11-Starchasm Pt 2
    DR10 -2.63 dB -15.57 dB 0:37 12-Stampys Blaster
    DR11 -2.08 dB -15.30 dB 5:11 13-Factions
    DR12 -2.08 dB -17.74 dB 3:56 14-Yogi
    DR13 -1.62 dB -18.17 dB 9:58 15-Precious Sardine
    DR12 -1.60 dB -16.66 dB 4:31 16-Hope Is In The World
    DR12 0.00 dB -15.01 dB 6:48 17-Children Of Dog
    DR12 -3.75 dB -18.75 dB 4:32 18-Sober
    DR13 -3.88 dB -19.52 dB 3:28 19-Boogus
    DR12 -5.33 dB -19.55 dB 3:52 20-Carry Me Home
    • ralfwalter's avatar
      ralfwalter
      Very nice sounding album/pressing. Also a very positive-vibe album overall that'll make you feel... happy.
      • bayouponpon's avatar
        bayouponpon
        Nice recording, very different from Empath, Devin knows how to make fine pop songs,
        • martyholt's avatar
          martyholt
          Oh my god this pressing sounds incredible! So quiet such but such a massive sound when it kicks in...
          • jordylicht's avatar
            jordylicht
            Holy moley... I just received it and gave it a spin. Only on Side A, but this is an AMAZING sounding record. More low frequencies than I've ever heard on vinyl. Plus, for a coloured vinyl, NO background noise whatsoever.
            It sounds like a complete standalone master, like they did with the Empath vinyl.
            • ginger_hax's avatar
              ginger_hax
              Very high-quality press, and box set in general. Everything looks and sounds great.

              Release

              For sale on Discogs

              Sell a copy

              33 copies from $70.57

              Statistics

              • Have:577
              • Want:54
              • Avg Rating:4.58 / 5
              • Ratings:31

              Ad

              Videos (7)

              Edit
              Ad
              Ad