Ad

YesFragile

Label:Atlantic – RCV1 7211, Rhino Records (2) – 603497838240
Series:Atlantic 75
Format:
Vinyl, LP, Album, Limited Edition, Reissue, Clear
Country:Worldwide
Released:
Genre:Rock
Style:Prog Rock

Tracklist

A1Roundabout
Written-ByAnderson*, Howe*
8:29
A2Cans And Brahms (Extracts From Brahms' 4th Symphony In E Minor, Third Movement)
Arranged ByWakeman*
Composed ByBrahms*
1:35
A3We Have Heaven
Written-ByAnderson*
1:30
A4South Side Of The Sky
Written-BySquire*, Anderson*
8:04
B1Five Percent For Nothing
Written-ByBruford*
0:35
B2Long Distance Runaround
Written-ByAnderson*
3:33
B3The Fish (Shindleria Praematurus)
Written-BySquire*
2:35
B4Mood For A Day
Written-ByHowe*
2:57
B5Heart Of The Sunrise
Written-ByBruford*, Squire*, Anderson*
10:34
Ad

Companies, etc.

Credits

Notes

Cut by Kevin Gray at Cohearent Audio.
Gatefold cover with an inner 8-page booklet.
Made in the Netherlands.
Matte finish both inside and outside the gatefold sleeve; no difference in finish like the originals.

Part of Rhino’s 2023 Start Your Ear Off Right Campaign.
These releases are available through independent and music specialist retailers only.

Pressed By information is not listed. Information derived from runouts.

Barcode and Other Identifiers

Other Versions (5 of 347)

View All
Title (Format)LabelCat#CountryYear
Fragile (LP, Album, Stereo, Gatefold)Atlantic, Atlantic2401019, 2401 019UK1971
New Submission
Fragile (LP, Album, Gatefold)AtlanticATL 50009Portugal1971
New Submission
Fragile (LP, Album)AtlanticSD-7211Australia1971
New Submission
Fragile (LP, Album, No SIAE printed)AtlanticK 50009Italy1971
Recently Edited
Fragile (LP, Album)Atlantic, Atlantic2401019, 2401 019UK1971
  • juanmanuelchr's avatar
    Amazing pressing, pristine, very clear and punchy! I'm very happy with my copy, no surface noise. Better than my older copy.
    • GT_'s avatar
      GT_
      Absolutely amazing, stunning, spectacular sounding, extraordinary packaging quality. No more words, hands down.
      • Glennus's avatar
        Glennus
        Sounds pretty great!

        DR10 0.00 dB -12.88 dB 8:28 01-Roundabout
        DR11 -0.53 dB -14.78 dB 1:37 02-Cans And Brahms
        DR9 -0.99 dB -12.73 dB 1:39 03-We Have Heaven
        DR11 -0.01 dB -13.58 dB 7:53 04-South Side Of The Sky
        DR13 -0.53 dB -15.08 dB 0:35 05-Five Percent For Nothing
        DR12 -0.37 dB -14.38 dB 3:32 06-Long Distance Runaround
        DR11 -0.60 dB -14.38 dB 2:34 07-The Fish (Shindleria Praematurus)
        DR14 -2.09 dB -19.66 dB 2:56 08-Mood For A Day
        DR11 -0.59 dB -14.50 dB 11:22 09-Heart Of The Sunrise
        • Wouterow's avatar
          Wouterow
          Edited 6 days ago
          Looks like it’s already sold out at allot of stores online in Europe.
          Maybe there is gonna be a later restock or it’s indeed very limited.
          Waiting for my order to get shipped 🤞
          • Harveyadam's avatar
            Harveyadam
            Edited 7 days ago
            Phenomenal sound on this although I can hear some non-fill on the second side. The music does cut through it for the most part.

            Better sounding than my 1972 UK repress so I’m happy.

            Equipment:

            Fluance RT85 w/ Ortofon 2M Blue
            ifi Zen Phono Preamp
            Denon 600 amp
            Monitor Audio Bronze 2 speakers
            • Berzerkly's avatar
              Berzerkly
              Just bought this and it sounds fantastic to my ears (it’s also flat and quiet). It’s a pretty impressive package for the price. It’s a gatefold with poly-lined inner and even comes with the booklet. I have to say I’m very impressed with these Rhino reissues.
              • Batu_'s avatar
                Batu_
                I bought a second copy of this from the same store after the first copy, cleaned both but still had a some hissing and more abrasive pops on the second side especially at the beginning Long Distance Runaround, it feels like a pressing problem so I wanna know if other people are having this too, the stores I buy from are very lenient with returns so it's easy to return this second one as well, but if this is a unique problem to the store I'd like buying one from B&N, just don't want to if it's a pressing issue, besides the noise the music sounds amazing though
                • Hckelly's avatar
                  Hckelly
                  I have the original 1972 Richmond pressing LP, the 2015 Steven Wilson remaster and the 2023 clear vinyl remaster. Tonight I played the disks back to back, latest to earliest. The remasters definitely have a brighter sound, instrument separation is more defined and are brilliant. But the original after a thorough cleaning sounds warmer. It’s a little muddier but of course it’s 50 years old! This is most notable on the reprise of “We Have Heaven” ending Side 2. But I love all three! p.s. the 2023 release’s accompanying 8 page booklet is on more substantial and impressive paper stock than the previous edition’s.
                  • rjwillis's avatar
                    rjwillis
                    Fantastic and I do mean FANTASTIC pressing. You can hear every instrument clear as a bell.
                    That being said, DO NOT PAY CROOKS TRYING TO FLIP THIS. Saying something is “out of print” that’s only been out a couple weeks is a joke. $24.99 plus shipping at Barnes and Noble!!
                    • batman21's avatar
                      batman21
                      Wowzah! I have two original US Atlantics and the blu ray. I like them all for different reasons but this thing siiiiings and is an amazing value for $24! Recommended!

                      Release

                      Marketplace

                      55 For Sale from $27.00
                      Ad
                      Ad

                      Statistics

                      • Have:565
                      • Want:303
                      • Avg Rating:4.91 / 5
                      • Ratings:57
                      • Last Sold:
                      • Lowest:$26.98
                      • Median:$32.25
                      • Highest:$40.75

                      Videos (9)

                      Edit

                      Lists

                        Ad