Ad

KatatoniaSky Void Of Stars

Label:Napalm Records – NPR1208VINYL
Format:
2 x Vinyl, 12", 45 RPM, Album
Country:USA & Europe
Released:
Genre:Rock
Style:Progressive Metal

Tracklist

A1Austerity
A2Colossal Shade
A3Opaline
B1Birds
B2Drab Moon
B3Author
C1Impermanence
C2Sclera
D1Atrium
D2No Beacon To Illuminate Our Fall
Ad

Companies, etc.

Credits

Notes

Black double vinyl in gatefold sleeve. Includes a foldout lyrics sheet poster.

Barcode and Other Identifiers

  • Barcode: 840588171668
  • Barcode (Printed): 8 40588 17166 8
  • Label Code: 11368
  • Rights Society: Austro Mechana
  • Matrix / Runout (Side A, hand etched): NPR 1208 VINYL BM82912-01 A1
  • Matrix / Runout (Side B, hand etched): NPR 1208 VINYL BM82912-01 B1
  • Matrix / Runout (Side C, hand etched): NPR 1208 VINYL BM82912-02 C1
  • Matrix / Runout (Side D, hand etched): NPR 1208 VINYL BM82912-02 D1

Other Versions (5 of 15)

View All
Title (Format)LabelCat#CountryYear
Sky Void Of Stars (CD, Album, Limited Edition, Stereo, Mediabook)Napalm RecordsNPR1208MBEurope2023
Recently Edited
Sky Void Of Stars (2×12", 45 RPM, Album, Limited Edition, White/Forest Green Inkspot)Napalm RecordsNPR1208VINYLUSA & Europe2023
New Submission
Sky Void Of Stars (2×12", 45 RPM, Album, Limited Edition, Green [Dark])Napalm RecordsNPR1208VINYLUSA & Europe2023
New Submission
Sky Void Of Stars (2×12", 45 RPM, Album, Limited Edition, Green Marbled)Napalm RecordsNPR1208VINYLEurope2023
Sky Void Of Stars (CD, Album, Stereo)Napalm RecordsNPR1208JCUSA & Europe2023

Recommendations

Reviews

  • Dnecemusic's avatar
    Dnecemusic
    This is a really great sounding pressing. I really hate that the lyrics are part of the fold out poster...who wants to wrestle with that while following along with the lyrics. It's so dumb. Really great record though!
    • Osommos's avatar
      Osommos
      Edited 4 months ago
      My copy is a bit warped, but I don't hear any issues with the sound. This album on vinyl definitely sounds more interesting than in digital format. The large fold-out poster deserves special mention!

      After several months, I want to say that this is the best vinyl purchase from what came out in 2023. Design and material are 10/10.
      • manowire12's avatar
        manowire12
        Awesome record! Some of Katatonia's best work in recent years. The 45rpm approach enhances the music. Would be really nice if they went back and cut some of their earlier work at 45rpm. Hint hint My pressing was quiet and flat. Well done.
        • gtripodi13's avatar
          gtripodi13
          Great press. Only one complaint. There is no indication anywhere on either the sleeve or discs that this is a 45RPM pressing. I listened to most of the first disc at 33 before I came to the conclusion that something was very wrong. I can only assume that this was on purpose. FYI...its not actually unlistenable at 33RPMs, just disturbing.
          • GlennusGoat's avatar
            GlennusGoat
            Clean pressing, no complaints here.

            DR11 0.00 dB -12.59 dB 3:42 01-Austerity
            DR12 -0.02 dB -13.62 dB 4:24 02-Colossal Shade
            DR11 -0.02 dB -14.27 dB 4:58 03-Opaline
            DR11 -0.20 dB -13.30 dB 4:05 04-Birds
            DR12 -0.18 dB -14.00 dB 3:55 05-Drab Moon
            DR11 -0.65 dB -14.27 dB 4:13 06-Author
            DR11 -0.05 dB -13.54 dB 5:08 07-Impermanence
            DR12 -0.05 dB -14.46 dB 4:41 08-Sclera
            DR11 -0.05 dB -13.03 dB 4:05 09-Atrium
            DR11 -0.05 dB -14.18 dB 6:04 10-No Beacon To Illuminate Our Fall

            Release

            For sale on Discogs

            Sell a copy

            41 copies from $22.58

            Statistics

            • Have:1023
            • Want:68
            • Avg Rating:4.76 / 5
            • Ratings:74

            Ad

            Videos (5)

            Edit
            Ad
            Ad