Ad

The Gentle StormThe Diary

Label:Music On Vinyl – MOVLP3074, Inside Out Music – MOVLP3074
Format:
3 x Vinyl, LP, Album, Limited Edition, Numbered, Reissue, Flaming Coloured
Country:Netherlands
Released:
Genre:Rock, Folk, World, & Country
Style:Folk, Prog Rock

Tracklist

Gentle
A1Endless Sea (Gentle Version)5:59
A2Heart Of Amsterdam (Gentle Version)6:36
A3The Greatest Love (Gentle Version)4:08
B1Shores Of India (Gentle Version)6:40
B2Cape Of Storms (Gentle Version)5:28
B3The Moment (Gentle Version)6:08
C1The Storm (Gentle Version)5:56
C2Eyes Of Michiel (Gentle Version)3:56
C3Brightest Light (Gentle Version)4:46
C4New Horizons (Gentle Version)5:24
C5Epilogue: The Final Entry (Gentle Version)2:02
Storm
D1Endless Sea (Storm Version)5:53
D2Heart Of Amsterdam (Storm Version)6:37
D3The Greatest Love (Storm Version)3:57
E1Shores Of India (Storm Version)6:24
E2Cape Of Storms (Storm Version)5:32
E3The Moment (Storm Version)6:10
F1The Storm (Storm Version)5:58
F2Eyes Of Michiel (Storm Version)4:00
F3Brightest Light (Storm Version)4:54
F4New Horizons (Storm Version)5:25
F5Epilogue: The Final Entry (Storm Version)2:03
Ad

Companies, etc.

Credits

Notes

180 gram audiophile vinyl
includes 12-page booklet with lyrics and background story
Limited edition of 1000 numbered copies

Barcode and Other Identifiers

  • Barcode: 8 719262 023345
  • Matrix / Runout (Side A): 35838 1A MOVLP 3074
  • Matrix / Runout (Side B): 35838 1B MOVLP 3074
  • Matrix / Runout (Side C): 35838 1C MOVLP 3074
  • Matrix / Runout (Side D): 35838 1D MOVLP 3074
  • Matrix / Runout (Side E): 35838 2E MOVLP 3074
  • Matrix / Runout (Side F): 35838 1F MOVLP 3074

Other Versions (5 of 13)

View All
Title (Format)LabelCat#CountryYear
Recently Edited
The Diary (2×CD, Album, Special Edition, Digipak)Inside Out Music, Inside Out MusicIOMSECD 418, 0507088Germany2015
The Diary (4×CD, Album, Limited Edition, Artbook)Inside Out Music, Inside Out MusicIOMLTDCD 418, 0507080Germany2015
Recently Edited
The Diary (3×LP, Album, Red, 2×CD, Album, All Media, Limited Edition)Inside Out Music, Inside Out MusicIOMLP 418, 0507081Germany2015
Recently Edited
The Diary (3×LP, Album, Gold, 2×CD, Album, All Media, Limited Edition)Inside Out Music, Inside Out MusicIOMLP 418, 0507081Germany2015
Recently Edited
The Diary (3×LP, Album, Clear, 2×CD, Album, All Media, Limited Edition)Inside Out Music, Inside Out MusicIOMLP 418, 0507081Germany2015

Recommendations

Reviews

  • rikiheck's avatar
    rikiheck
    The dynamics, especially on the Storm version, are just astonishing. The drums almost knocked me out of my seat at times. I don't know how to interpret the data below, but it certainly doesn't sound compressed.
    I'll add that this has become one of my favorite records. The story is beautiful, though sad, and Anneke sings it with such passion. I think I prefer the Gentle version, if only because it highlights the vocals more. That one brings me to tears every time.
    Details on my system linked from my profile page.
    • christiant2014's avatar
      I have an original pressing. Is there a noticeable sound difference that would justify me getting this reissue?
      • GlennusGoat's avatar
        GlennusGoat
        Sounds stellar, just like the first pressing.

        Gentle:
        DR13 -0.33 dB -18.09 dB 5:55 01-Endless Sea
        DR14 -1.26 dB -18.52 dB 6:34 02-Heart Of Amsterdam
        DR12 -3.08 dB -17.85 dB 4:06 03-The Greatest Love
        DR13 -1.13 dB -17.25 dB 6:38 04-Shores Of India
        DR13 -1.53 dB -17.11 dB 5:27 05-Cape Of Storms
        DR13 -0.50 dB -17.39 dB 6:06 06-The Moment
        DR13 -1.66 dB -16.99 dB 5:53 07-The Storm
        DR14 -0.12 dB -15.60 dB 3:56 08-Eyes Of Michiel
        DR13 -1.74 dB -17.51 dB 4:45 09-Brightest Light
        DR12 -0.55 dB -15.77 dB 5:24 10-New Horizons
        DR14 -1.89 dB -19.39 dB 1:58 11-Epilogue: The Final Entry

        Storm:
        DR12 -0.04 dB -14.55 dB 5:50 01-Endless Sea
        DR12 -0.24 dB -14.40 dB 6:36 02-Heart Of Amsterdam
        DR11 -0.03 dB -13.40 dB 3:56 03-The Greatest Love
        DR11 -0.32 dB -13.72 dB 6:22 04-Shores Of India
        DR11 -0.14 dB -14.71 dB 5:32 05-Cape Of Storms
        DR12 -0.64 dB -16.72 dB 6:09 06-The Moment
        DR12 0.00 dB -14.08 dB 5:57 07-The Storm
        DR12 -0.58 dB -14.95 dB 3:58 08-Eyes Of Michiel
        DR11 -0.57 dB -14.32 dB 4:54 09-Brightest Light
        DR11 -0.04 dB -14.77 dB 5:24 10-New Horizons
        DR12 -1.29 dB -18.79 dB 2:00 11-Epilogue: The Final Entry

        Release

        For sale on Discogs

        Sell a copy

        34 copies from $31.65

        Statistics

        • Have:209
        • Want:7
        • Avg Rating:4.5 / 5
        • Ratings:18

        Ad

        Videos (5)

        Edit
        Ad
        Ad