Ad

Release

Marketplace

1 For Sale from $37.21
Ad
Ad

Statistics

  • Have:

    24
  • Want:

    24
  • Avg Rating:

    4.67 / 5
  • Ratings:

    3
  • Last Sold:

  • Lowest:

    $10.23
  • Median:

    $11.33
  • Highest:

    $12.50

Videos (12)

Edit

Lists

    Ad
    Marc Jordan - Blue Desert album cover

    Marc JordanBlue Desert

    Label:Warner Bros. Records – 7599-26233-2
    Format:
    CD, Album
    Country:Germany
    Released:
    Genre:Rock
    Style:Soft Rock

    Tracklist

    1Generalities
    DrumsRalph Humphrey
    Keyboards, SynthesizerMichael Omartian
    Lead GuitarJay Graydon
    Programmed ByMichael Omartian
    Rhythm GuitarDean Parks, Ray Parker Jr.
    SaxophoneErnie Watts
    4:23
    2I'm A Camera
    Backing VocalsVenette Gloud
    DrumsJeffrey Porcaro*
    KeyboardsMichael Omartian
    Programmed ByMichael Omartian
    Rhythm GuitarRay Parker Jr.
    SynthesizerGreg Mathieson
    3:46
    3Twilight
    DrumsJim Keltner
    KeyboardsMichael Omartian
    Lead GuitarJay Graydon
    Rhythm GuitarDean Parks
    SynthesizerJay Graydon
    3:41
    4From Nowhere To This Town
    Backing VocalsBill Champlin, Bobby Kimball, Tim Kelly*
    DrumsJeffrey Porcaro*
    KeyboardsMichael Omartian
    Lead GuitarJay Graydon
    Rhythm GuitarSteve Lukather
    3:33
    5Beautiful People
    DrumsRalph Humphrey
    GuitarJay Graydon
    Keyboards, SynthesizerMichael Omartian
    Programmed BySteve Porcaro
    Rhythm GuitarDean Parks
    SaxophoneErnie Watts
    4:27
    6Lost In The Hurrah
    DrumsJim Keltner
    FlugelhornChuck Findley
    Keyboards, SynthesizerMichael Omartian
    Rhythm GuitarDean Parks
    SynthesizerJay Graydon
    5:21
    7Release Yourself
    DrumsJeffrey Porcaro*
    Lead GuitarJay Graydon
    Piano, SynthesizerMichael Omartian
    Rhythm GuitarJake The Rake
    SaxophonePete Christlieb
    4:14
    8Tattooed Lady
    DrumsRalph Humphrey
    Electric PianoDave McMorrow
    Rhythm Guitar, SoloistJay Graydon
    SaxophonePete Christlieb
    3:44
    9Exile
    Acoustic Guitar, Electric GuitarJay Graydon
    DrumsRalph Humphrey
    HarpBen Beney
    KeyboardsMichael Omartian
    OrganGreg Mathieson
    4:30
    Ad

    Credits

    Barcode and Other Identifiers

    • Barcode: 0 7599-26233-2

    Other Versions (5 of 19)View All

    Title (Format)LabelCat#CountryYear
    Blue Desert (LP, Album)Warner Bros. RecordsQBS-3362Canada1979
    New Submission
    Blue Desert (LP, Album)Warner Bros. RecordsBSK 3362US1979
    New Submission
    Blue Desert (LP, Album)Warner Bros. RecordsP-10774WJapan1979
    New Submission
    Blue Desert (LP, Album, Test Pressing)Warner Bros. RecordsBSK 3362US1979
    New Submission
    Blue Desert (LP, Album)Warner Bros. RecordsBSK 3362Australia1979

    Recommendations

    Reviews

    ispace's profile picture
    ispace
    foobar2000 1.3.17 / Dynamic Range Meter 1.1.1
    log date: 2018-02-09 20:55:33

    --------------------------------------------------------------------------------
    Analyzed: Marc Jordan / Blue Desert
    --------------------------------------------------------------------------------

    DR Peak RMS Duration Track
    --------------------------------------------------------------------------------
    DR15 -0.64 dB -18.97 dB 4:28 01-Generalities
    DR14 0.00 dB -17.64 dB 3:50 02-I'm A Camera
    DR13 -0.54 dB -18.55 dB 3:44 03-Twilight
    DR14 -0.08 dB -17.15 dB 3:37 04-From Nowhere To This Town
    DR14 -1.49 dB -18.82 dB 4:30 05-Beautiful People
    DR15 0.00 dB -19.78 dB 5:25 06-Lost In The Hurrah
    DR14 -0.07 dB -17.28 dB 4:18 07-Release Yourself
    DR14 0.00 dB -18.22 dB 3:48 08-Tattooed Lady
    DR13 -1.58 dB -18.36 dB 4:33 09-Exile
    --------------------------------------------------------------------------------

    Number of tracks: 9
    Official DR value: DR14

    Samplerate: 44100 Hz
    Channels: 2
    Bits per sample: 16
    Bitrate: 826 kbps
    Codec: ALAC
    ================================================================================