Ad

BurzumBurzum

Label:Deathlike Silence Productions (2) – ANTI-MOSH 002
Format:
CD, Album, Reissue, Repress, Unofficial Release
Country:
Released:
Genre:Electronic, Rock
Style:Dark Ambient, Black Metal

Tracklist

Side Hate
1Feeble Screams From Forests Unknown7:28
2Ea, Lord Of The Deeps4:52
3Black Spell Of Destruction5:39
4Channelling The Power Of Souls Into A New God3:27
Side Winter
5War2:30
6The Crying Orc0:57
7A Lost Forgotten Sad Spirit9:10
8My Journey To The Stars8:10
9Dungeons Of Darkness4:50
Ad

Credits

Notes

Bootleg release.

Recorded mid-winter 1992 during full moon at Grieghallen.

℗&© DSP 1992

Total running time: 47:06

Euronymous (DSP owner) mistyped the track 2 title as "Ea, Lord Of The Deeps". It was corrected to the intended title "Ea, Lord Of The Depths" on the 1995 Misanthropy Records reissue.

Unlike the <a href="http://www.discogs.com/Burzum-Burzum/release/413444">first pressing</a>, this version does not contain the address of Burzum on the back cover, but a print line referring to the distributor Voices Of Wonder.

Barcode and Other Identifiers

  • Matrix / Runout: DURECO [01] ANTIMOSH 002

Other Versions (5 of 39)

View All
Title (Format)LabelCat#CountryYear
Burzum (CD, Album)Deathlike Silence ProductionsANTI-MOSH 002Norway1992
Recently Edited
Burzum (LP, Album)Deathlike Silence ProductionsANTI-MOSH 002Norway1992
New Submission
Burzum (LP, Album, Repress)Deathlike Silence ProductionsANTI-MOSH 002Norway1992
Burzum (CD, Album, Repress)Deathlike Silence ProductionsANTI-MOSH 002Norway1993
Burzum (LP, Album, Repress)Deathlike Silence ProductionsANTI-MOSH 002Norway1993

Recommendations

Reviews

  • Cirithsaxon's avatar
    Cirithsaxon
    Edited one year ago
    Same dynamic range as on the original 1992 CD. We can assume it is 1:1 audio copy from the original CD.

    DR10 -0.18 dB -13.07 dB 01 Feeble Screams From Forests Unknown.mp3
    DR10 -0.64 dB -12.42 dB 02 Ea, Lord of the Dephts.mp3
    DR12 -0.57 dB -14.41 dB 03 Spell of destruction.mp3
    DR10 -8.73 dB -21.76 dB 04 Channelling The Power Of Souls Into A New God.mp3
    DR10 -0.91 dB -12.84 dB 05 War.mp3
    DR10 -7.23 dB -21.45 dB 06 The Crying Orc.mp3
    DR11 -0.09 dB -13.71 dB 07 A Lost Forgotten Sad Spirit.mp3
    DR10 -0.01 dB -12.28 dB 08 My journey to the Stars.mp3
    DR10 -1.65 dB -17.30 dB 09 Dungeons of Darkness.mp3

    Release

    For sale on Discogs

    This release is blocked from sale on Discogs. It is not permitted to sell this item in our Marketplace.

    Learn more about blocked items on Discogs

    Statistics

    • Have:45
    • Want:153
    • Avg Rating:4.43 / 5
    • Ratings:7
    • Last Sold:Never
    • Low:--
    • Median:--
    • High:--

    Ad

    Videos (1)

    Edit
    Ad
    Ad