Seawind ‎– Light The Light / Seawind

Label:
SoulMusic Records ‎– SMCR 25114
Format:
CD, Compilation, Remastered
Country:
Released:
Genre:
Style:

Tracklist

Light The Light
1 Hold On To Love 4:23
2 Free 4:21
3 Sound Rainbow 3:47
4 Follow Your Road 5:43
5 Light The Light 3:33
6 Morning Star 5:23
7 Imagine 4:10
8 Enchanted Dance 5:06
Seawind
9 What'Cha Doin' 4:35
10 The Two Of Us 3:49
11 Love Him, Love Her 3:26
12 Everything Needs Love 5:46
13 Shout 4:26
14 Still In Love 3:53
15 Pra Vosé 4:16
16 I Need Your Love 3:54
17 Long, Long Time 3:58

Companies, etc.

Credits

Notes

Originally released on A&M Records, in 1979 and 1980 respectively.

Made in EU

Barcode and Other Identifiers

  • Barcode: 5 013929 081437
  • Matrix / Runout (Variants 1, 2): CA SMCR25114 @
  • Matrix / Runout (Date/time stamp (Variants 1, 2)): 01/16/14 05:19:21 AM
  • Mastering SID Code (Variants 1, 2): IFPI L039
  • Mould SID Code (Variant 1): IFPI 1263
  • Mould SID Code (Variant 2): IFPI 1280
  • Rights Society: MCPS

Reviews

Add Review

ispace

ispace

June 23, 2020
edited 5 months ago
Nicely dynamic remaster

foobar2000 1.4.4 / Dynamic Range Meter 1.1.1
log date: 2020-06-23 20:22:38

--------------------------------------------------------------------------------
Analyzed: Seawind / Light The Light / Seawind [UK 1979&1980/2014 CD]
--------------------------------------------------------------------------------

DR Peak RMS Duration Track
--------------------------------------------------------------------------------
DR11 0.00 dB -13.37 dB 4:25 01-Hold On To Love
DR11 0.00 dB -13.22 dB 4:23 02-Free
DR12 0.00 dB -13.91 dB 3:48 03-Sound Rainbow
DR11 0.00 dB -15.23 dB 5:42 04-Follow Your Road
DR12 0.00 dB -14.71 dB 3:34 05-Light The Light
DR11 0.00 dB -14.58 dB 5:25 06-Morning Star
DR11 0.00 dB -15.46 dB 4:12 07-Imagine
DR12 0.00 dB -13.53 dB 5:08 08-Enchanted Dance
DR14 0.00 dB -16.04 dB 4:36 09-What Cha' Doin?
DR14 0.00 dB -17.19 dB 3:50 10-Love Him, Love Her
DR14 0.00 dB -16.52 dB 3:26 11-The Two Of Us
DR13 0.00 dB -16.06 dB 5:46 12-Everything Needs Love
DR15 0.00 dB -16.73 dB 4:26 13-Shout
DR13 0.00 dB -16.87 dB 3:54 14-Still In Love
DR16 0.00 dB -17.98 dB 4:17 15-Pra Vose
DR15 0.00 dB -17.83 dB 3:54 16-I Need Your Love
DR13 0.00 dB -15.93 dB 3:59 17-Long, Long Time
--------------------------------------------------------------------------------

Number of tracks: 17
Official DR value: DR13

Samplerate: 44100 Hz
Channels: 2
Bits per sample: 16
Bitrate: 866 kbps
Codec: ALAC
================================================================================