Ad

Release

Marketplace

14 For Sale from $10.68
Ad
Ad

Statistics

  • Have:

    48
  • Want:

    9
  • Avg Rating:

    4.25 / 5
  • Ratings:

    4
  • Last Sold:

  • Lowest:

    $12.79
  • Median:

    $19.99
  • Highest:

    $25.58

Videos (5)

Edit

Lists

    Ad

    Bill ChamplinSingle

    Label:Epic – ESCA 5300
    Series:Epic Nice Price Line
    Format:
    CD, Album, Reissue
    Country:Japan
    Released:
    Genre:Rock, Funk / Soul, Pop
    Style:Vocal, Arena Rock

    Tracklist

    1What Good Is Love
    Written-ByHarry Garfield, Jay Graydon
    3:40
    2I Don't Want You Anymore
    Written-ByBill Champlin, David Foster
    3:56
    3We Both Tried
    Written-ByBill Champlin, David Foster
    4:56
    4Yo Mama
    Written-ByBill Champlin
    4:09
    5Fly With Me
    Written-ByBill Champlin
    3:59
    6Love Is Forever
    Written-ByBill Champlin
    3:59
    7Careless3:53
    8Elayne
    Written-ByBill Champlin, Ed Whiting
    3:30
    9Keys To The Kingdom
    Written-ByBill Champlin, David Foster
    5:08
    Ad

    Companies, etc.

    Notes

    ℗1978 CBS Inc. / Epic AL 35367

    Barcode and Other Identifiers

    • Barcode: 4 988010 530020
    • Rights Society: JASRAC

    Other Versions (5 of 14)View All

    Title (Format)LabelCat#CountryYear
    New Submission
    Single (LP, Album)Full MoonJE 35367US1978
    New Submission
    Single (LP, Album, Promo)Full MoonJE 35367US1978
    New Submission
    Single (LP, Album)CBS Records Canada Ltd.PE 35367Canada1978
    New Submission
    Single (LP, Album, Promo)Full MoonJE 35367US1978
    New Submission
    Single (LP, Album, Promo)Full Moon25 3P-14Japan1978

    Reviews

    ispace's profile picture
    ispace
    foobar2000 1.3.17 / Dynamic Range Meter 1.1.1
    log date: 2018-05-23 18:50:28

    --------------------------------------------------------------------------------
    Analyzed: Bill Champlin / Single [JP 1991 CD]
    --------------------------------------------------------------------------------

    DR Peak RMS Duration Track
    --------------------------------------------------------------------------------
    DR12 -3.01 dB -16.87 dB 3:41 01-What Good Is Love
    DR13 -3.05 dB -17.35 dB 3:57 02-I Don't Want You Anymore
    DR12 -3.05 dB -18.83 dB 4:55 03-We Both Tried
    DR14 -2.57 dB -19.25 dB 4:10 04-Yo' Mama
    DR13 -2.62 dB -18.60 dB 4:00 05-Fly With Me
    DR12 -2.53 dB -16.74 dB 3:46 06-Love Is Forever
    DR12 -2.80 dB -16.96 dB 3:54 07-Careless
    DR12 -2.87 dB -17.90 dB 3:31 08-Elayne
    DR12 -2.86 dB -16.78 dB 5:08 09-Keys To The Kingdom
    --------------------------------------------------------------------------------

    Number of tracks: 9
    Official DR value: DR12

    Samplerate: 44100 Hz
    Channels: 2
    Bits per sample: 16
    Bitrate: 819 kbps
    Codec: ALAC
    ================================================================================