Ad

Release

Marketplace

17 For Sale from $14.53
Ad
Ad

Statistics

  • Have:

    139
  • Want:

    44
  • Avg Rating:

    4.5 / 5
  • Ratings:

    8
  • Last Sold:

  • Lowest:

    $6.00
  • Median:

    $11.06
  • Highest:

    $18.49

Videos (11)

Edit

Lists

    Ad

    Ned DohenySeparate Oceans

    Label:Numero Group – NUM052
    Format:
    CD, Compilation, Remastered, Stereo
    Country:US
    Released:
    Genre:Rock, Funk / Soul
    Style:Soft Rock, Soul, Funk

    Tracklist

    1Get It Up For Love4:43
    2Each Time You Pray3:39
    3What Cha’ Gonna Do For Me 4:06
    4To Prove My Love (Vocal Version)4:02
    5Labor Of Love3:36
    6A Love Of Your Own3:48
    7I’ve Got Your Number (Demo)2:30
    8If You Should Fall (Demo)2:12
    9When Love Hangs In The Balance (Demo)4:42
    10Fineline (Demo)3:03
    11On And On (Demo)3:16
    12I Can Dream3:35
    13I Know Sorrow4:33
    14Standfest4:44
    15A Love Of Your Own (Demo)3:08
    16On The Swingshift (Demo)3:15
    17The Devil In You4:07
    18Love's A Heartache5:05
    19Get It Up For Love (Demo)3:14
    Ad

    Companies, etc.

    Credits

    Notes

    Includes 40 page booklet with biography on Ned Doheny

    Barcode and Other Identifiers

    • Barcode: 825764105224
    • Matrix / Runout: 02/15/2014 03:34:06#24304 NUMERO052 WWW.BELLWETHERMFG.COM 01
    • Mastering SID Code: IFPI LN09
    • Mould SID Code: IFPI J105
    • Rights Society: ASCAP

    Other Versions (2)View All

    Title (Format)LabelCat#CountryYear
    New Submission
    Separate Oceans (2×LP, Compilation, Gatefold Sleeve)Numero GroupNUM052US2014
    New Submission
    Separate Oceans (CD, Compilation, Promo, Stereo)Numero GroupNUM052US2014

    Reviews

    ispace's profile picture
    ispace
    Edited 5 months ago
    Hugely compressed mastering. What a crying shame.

    foobar2000 1.4.4 / Dynamic Range Meter 1.1.1
    log date: 2020-09-01 21:31:17

    --------------------------------------------------------------------------------
    Analyzed: Ned Doheny / Separate Oceans
    --------------------------------------------------------------------------------

    DR Peak RMS Duration Track
    --------------------------------------------------------------------------------
    DR7 0.00 dB -9.67 dB 4:43 01-Get It Up For Love
    DR6 -0.10 dB -6.88 dB 3:39 02-Each Time You Pray
    DR7 -0.10 dB -8.39 dB 4:06 03-What Cha' Gonna Do For Me
    DR7 -0.10 dB -9.40 dB 4:02 04-To Prove My Love (Vocal Version)
    DR8 -0.10 dB -10.13 dB 3:36 05-Labor Of Love
    DR7 -0.01 dB -8.45 dB 3:48 06-A Love Of Your Own
    DR7 0.00 dB -8.46 dB 2:30 07-I've Got Your Number (Demo)
    DR7 -0.01 dB -7.66 dB 2:12 08-If You Should Fall (Demo)
    DR7 0.00 dB -9.50 dB 4:42 09-When Love Hangs In The Balance (Demo)
    DR7 -0.10 dB -8.27 dB 3:03 10-Fineline (Demo)
    DR7 -0.10 dB -8.35 dB 3:16 11-On And On (Demo)
    DR6 -0.10 dB -7.66 dB 3:35 12-I Can Dream (Demo)
    DR7 -0.10 dB -9.62 dB 4:33 13-I Know Sorrow
    DR7 -0.10 dB -9.50 dB 4:44 14-Standfast
    DR8 -0.01 dB -10.45 dB 3:08 15-A Love of Your Own (Demo)
    DR7 -0.01 dB -7.81 dB 3:15 16-On The Swingshift (Demo)
    DR7 -0.01 dB -9.83 dB 4:07 17-The Devil In You
    DR7 -0.10 dB -8.67 dB 5:06 18-Love's A Heartache (Demo)
    DR9 -0.10 dB -11.50 dB 3:14 19-Get It Up For Love (Demo)
    --------------------------------------------------------------------------------

    Number of tracks: 19
    Official DR value: DR7

    Samplerate: 44100 Hz
    Channels: 2
    Bits per sample: 16
    Bitrate: 888 kbps
    Codec: ALAC
    ================================================================================