Ashford & Simpson ‎– So So Satisfied

Label:
Big Break Records ‎– CDBBRX0335
Series:
Format:
CD, Album, Reissue, Remastered, Expanded Edition
Country:
Released:
Genre:
Style:

Tracklist Hide Credits

1 Tried, Tested And Found True
Backing Vocals – Joshie Armstead*, Raymond Simpson*Bass – Eric GaleDrums – Rick Marrata*, Steve GaddGuitar – Hugh McCrackenPiano – Richard TeeSynthesizer [Moog] – Kenneth J. Bichel*
5:27
2 Couldn't Get Enough
Backing Vocals – Joshie Armstead*, Raymond Simpson*Drums – Rick Marrata*, Steve GaddGuitar – Hugh McCrackenGuitar, Bass – Eric GalePercussion – Ralph McDonald*Piano – Richard Tee
3:36
3 Maybe I Can Find It
Backing Vocals – Raymond Simpson*Bass – Francisco CentenoDrums – Rick Marrata*Guitar – Steven Kahn*Guitar, Bass – Eric GaleOrgan – Don GrolnickPercussion, Congas – Ralph MacDonaldPiano – Richard Tee
5:16
4 Destiny
Arranged By [Strings & Horns] – Paul RiserBacking Vocals – Raymond Simpson*Bass – Francisco CentenoDrums – Rick Marrata*Electric Piano [Fender Rhodes] – Richard TeeGuitar – Eric Gale, Hugh McCrackenPercussion – Ralph MacDonald
3:57
5 So So Satisfied
Bass – Francisco CentenoDrums – Rick Marrata*Guitar – Eric Gale, Steve Kahn*Percussion – Ralph MacDonaldPiano, Electric Piano [Fender Rhodes] – Richard Tee
7:04
6 Over And Over
Backing Vocals – Joshie Armstead*, Raymond Simpson*Drums – Rick Marrata*, Steve GaddGuitar – Eric Gale, Hugh McCrackenPercussion – Ralph MacDonaldPiano – Richard Tee
4:23
7 It's You
Bass – Francisco CentenoDrums – Rick Marrata*Electric Piano [Fender Rhodes] – Pat RebillotGuitar – Elliott Randall, Eric GalePiano – Don Grolnick
3:54
8 If You're Lying
Backing Vocals – Joshie Armstead*, Raymond Simpson*Bass – Francisco CentenoDrums – Rick Marrata*Guitar – Eric Gale, Steve Kahn*Piano – Richard Tee
5:12
Bonus Tracks
9 Tried, Tested And Found True (Single Version) 3:27
10 So So Satisfied (Single Version) 3:40
11 Over And Over (12" Disco Single Version)
Remix – Jimmy Simpson
5:20
12 Tried, Tested & Found True (Mike Maurro Disco Remix)
Remix – Mike Maurro
12:34
13 Over And Over (Joey Negro Disco Remix)
Remix – Joey Negro
6:45

Companies, etc.

Credits

Notes

Track 12 first released on the The Mike Maurro Peak Hour Remixes.
Track 13 first released on Remixed With Love By Joey Negro.

Single releases:
Ashford And Simpson* - Tried, Tested And Found True Warner Bros. Records WBS-8286 (10/76) R&B #52/Disco #34
Ashford & Simpson - Maybe I Can Find It / So So Satisfied Warner Bros. Records WBS-8337 (2/77) R&B#27
Ashford & Simpson - Over And Over Warner Bros. Records WBS-8391 (5/77) R&B #39

Originally released on Warner Bros. Records ℗ 1977, 1976 [Track 1], 2013 [Track 13], 2015 [Track 12] Hopsack and Silk Inc.
Licensed courtesy of Altra Moda Music B.V. by arrangement with The Licensing Partnership UK Ltd.
This compilation © 2015 Big Break Records Marketed and distributed by Cherry Red Records, Power Road Studios, 114 Power Road, Chiswick, London, W4 SPY.
Made in EU / MCPS

Eric Gale appears courtesy of Columbia Records
Ralph MacDonald appears courtesy of Marlin Records, Inc.

Barcode and Other Identifiers

  • Barcode: 5 013929 063532
  • Mastering SID Code: IFPI LV26
  • Mould SID Code: IFPI 0123
  • Matrix / Runout: 00095 53834 233 01 * 53834240 A
  • Rights Society: MCPS

Other Versions (5 of 7) View All

Recommendations

Reviews

Add Review

ispace

ispace

March 31, 2020
edited 3 days ago
Awesome sounding remaster, thumbs up BBR!

foobar2000 1.4.4 / Dynamic Range Meter 1.1.1
log date: 2020-03-31 21:14:31

--------------------------------------------------------------------------------
Analyzed: Ashford & Simpson / So So Satisfied [UK BBR 1977/2015 CD]
--------------------------------------------------------------------------------

DR Peak RMS Duration Track
--------------------------------------------------------------------------------
DR13 -0.40 dB -15.17 dB 5:27 01-Tried, Tested And Found True
DR13 -0.40 dB -15.95 dB 3:36 02-Couldn't Get Enough
DR13 -0.40 dB -15.49 dB 5:17 03-Maybe I Can Find You
DR13 -0.40 dB -16.37 dB 3:57 04-Destiny
DR13 -0.40 dB -16.34 dB 7:05 05-So So Satisfied
DR13 -0.40 dB -14.96 dB 4:24 06-Over And Over
DR12 -0.43 dB -17.09 dB 3:54 07-It's You
DR13 -0.40 dB -16.22 dB 5:13 08-If You're Lying
DR12 -1.01 dB -15.19 dB 3:28 09-Tried, Tested And Found True (Single Version)
DR12 -2.15 dB -16.08 dB 3:41 10-So So Satisfied (Single Version)
DR12 -1.06 dB -14.62 dB 5:21 11-Over And Over (12" Disco Single Version)
DR12 -0.40 dB -14.71 dB 12:35 12-Tried, Tested And Found True (Mike Mauro Disco Remix)
DR12 -0.40 dB -14.32 dB 6:46 13-Over And Over (Joey Negro Disco Remix)
--------------------------------------------------------------------------------

Number of tracks: 13
Official DR value: DR13

Samplerate: 44100 Hz
Channels: 2
Bits per sample: 16
Bitrate: 927 kbps
Codec: ALAC
================================================================================