Ad

Release

Marketplace

16 For Sale from $10.09
Ad
Ad

Statistics

  • Have:

    145
  • Want:

    50
  • Avg Rating:

    4.36 / 5
  • Ratings:

    11
  • Last Sold:

  • Lowest:

    $9.07
  • Median:

    $10.65
  • Highest:

    $14.76

Videos (7)

Edit
Ad

Sheena EastonThe Lover In Me

Label:Cherry Pop – CR POP 2
Format:
CD, Album, Reissue, Remastered
Country:Europe
Released:
Genre:Electronic, Funk / Soul, Pop
Style:Synth-pop, RnB/Swing, Ballad, House, Vocal

Tracklist

1No Deposit, No Return
Co-producerKayo (4)
5:55
2The Lover In Me
Written-ByBabyface, D. Simmons*, L.A. Reid
5:03
3Follow My Rainbow
Written-ByBabyface
4:55
4Without You
Written-ByAngela L. Winbush*
5:37
5If It's Meant To Last
ProducerJellybean*
4:07
6Days Like This
Written-ByL.A. Reid/Babyface*
5:07
7One Love
Written-ByBabyface/L.A. Reid*
4:54
8101
ProducerPrince
Written-ByJoey Coco
4:06
9Cool Love
ProducerPrince
Producer [Additional Production By]David Leonard
Written-ByJoey Coco
4:03
10Fire And Rain
Written-By, ProducerAngela L. Winbush*
5:56
Bonus Tracks
11The Lover In Me (Extended Dub Version)
Written-ByBabyface, D. Simmons*, L.A. Reid
7:31
12Days Like This (7" Version)
Written-ByL.A. Reid/Babyface*
4:12
13101 (The Remix)
Remix [Uncredited]David Morales
Written-ByJoey Coco
8:00
14No Deposit, No Return (Radio Edit)4:49
Ad

Companies, etc.

Credits

Notes

Ⓟ 1988 MCA Records Inc.
© 2006 Cherry Pop

The discography in the booklet incorrectly says the "The Lover In Me" album & single were released in 1989 (it was 1988). It contains a few other minor mistakes as well.

track 13, here listed as "101 (The Remix)" is the same as "101 (Def House Mix / Extended Club Version)" on other releases e.g. 101 and 101.

Barcode and Other Identifiers

  • Barcode (Text): 5 013929 420229
  • Barcode (Scanned): 5013929420229

Other Versions (5 of 43)View All

Title (Format)LabelCat#CountryYear
The Lover In Me (LP, Album)MCA Records, MCA Records256 008-1, MCA-42249Europe1988
The Lover In Me (LP, Album)MCA RecordsMCA-42249US1988
The Lover In Me (Cassette, Album)MCA Records256 008-4Europe1988
Needs Changes
The Lover In Me (CD, Album)MCA RecordsMCAWD-42249Canada1988
The Lover In Me (CD, Album)MCA RecordsMCAD-44249US1988

Reviews

ispace's profile picture
ispace
Agree, great remastering.

foobar2000 1.4.4 / Dynamic Range Meter 1.1.1
log date: 2020-04-05 16:02:01

--------------------------------------------------------------------------------
Analyzed: Sheena Easton / The Lover In Me [UK 1988/2006 CD]
--------------------------------------------------------------------------------

DR Peak RMS Duration Track
--------------------------------------------------------------------------------
DR12 0.00 dB -13.87 dB 5:57 01-No Deposit, No Return
DR12 0.00 dB -13.98 dB 5:01 02-The Lover In Me
DR12 0.00 dB -14.68 dB 4:53 03-Follow My Rainbow
DR12 0.00 dB -13.44 dB 5:34 04-Without You
DR12 0.00 dB -13.22 dB 4:09 05-If It's Meant To Last
DR11 0.00 dB -13.16 dB 5:09 06-Days Like This
DR12 0.00 dB -13.96 dB 4:55 07-One Love
DR13 0.00 dB -15.04 dB 4:08 08-101
DR15 0.00 dB -16.80 dB 4:04 09-Cool Love
DR14 0.00 dB -15.93 dB 5:57 10-Fire An Rain
DR13 0.00 dB -14.24 dB 7:32 11-The Lover In Me (Extended Dub Version)
DR11 0.00 dB -12.34 dB 4:12 12-Days Like this (7" Version)
DR11 0.00 dB -11.29 dB 8:01 13-101 (The Remix)
DR12 0.00 dB -12.99 dB 4:49 14-No Deposit No Return (Radio Edit)
--------------------------------------------------------------------------------

Number of tracks: 14
Official DR value: DR12

Samplerate: 44100 Hz
Channels: 2
Bits per sample: 16
Bitrate: 1007 kbps
Codec: ALAC
================================================================================
hatfulofelt's profile picture
hatfulofelt
To my ears at least, the remastering on this is superb.