"You people think too much" © Martin L. Gore
Recent Activity
submitted Jay-Jay Johanson - Rorschach Test. 4 months ago
posted a review of MG (12) - The Third Chimpanzee EP. 6 months ago
I have only one question for this release: What for?
submitted Ásgeir Trausti - Bury The Moon. about 1 year ago
posted a comment on Pet Shop Boys - Hotspot. about 1 year ago
Totally agree with every word! (Though not a big fan of Dreamland - have a mixed feelings about this track.)
submitted Beck - Hyperspace. about 1 year ago
posted a review of Towa Tei - Arbeit. about 1 year ago
First press came with a square badge with album's artwork on it.
Actual correct tracklist (according to info of previously released records):
01 KOJI1200 - 宇宙人
02 板尾創路 (ITSUJI ITAO) - 少年B
03 KOJI1200 - ナウ ロマンティック
04 小泉今日子 (KYOKO KOIZUMI) - DRIVE
05... See full review
submitted Róisín Murphy - Incapable (Remixes). about 1 year ago
posted a comment on Madonna - Madame X. over 2 years ago
Same! Both with visible scratches. Bought my copy at CDJAPAN.
posted a comment on Cassius. over 2 years ago
RIP Zdar! Such a loss! We will always remember you!
posted a review of Madonna - Madame X. over 2 years ago
Unexpectedly and surprisingly good! Though both tracks with Maluma - SUCKS! Without autotune the album will be a masterpiece! If it was recorded by Rihanna or someone else with the same age the album likely was praised by everyone and sounded from... See full review
posted a comment on Madonna + Quavo - Future. over 2 years ago
The track just SUCKS! Awfully autotuned garbage. From the pioneer, innovator and creator she became... I don't know who she is now. Definitely not the most powerful force of pop music like before.
posted a comment on UNKLE - The Road: Part II / Lost Highway. over 2 years ago
Only a few good tracks. Others just.. MEH... Sounds like boring outtakes from the first part.
posted a review of DJ Koze - Knock Knock. over 3 years ago
It's definitely one of the TOP 3 albums of the year - quintessential of best Koze. The box really worth every penny/cent spent!
If you still don't have it - BUY IT! You will never have any regrets!
posted a comment on Janelle Monáe - Dirty Computer. over 3 years ago
Janelle said at one of her interviews that vinyl will be available later this year. Just wait a little.
posted a review of Kylie* - Golden. over 3 years ago
The album is... hmm, OK but looks like Kylie lost her sparkle on this one :/ All songs sounds too monotonuos.
posted a comment on Erasure - World Beyond. over 3 years ago
I do really love Erasure! A lot! But...
If you never heard a howl of the wounded bison - this is your chance :/
posted a comment on Tracey Thorn - Record. over 3 years ago
The album is really very good! Tracey is fantastic as usual!
posted a comment on Mylene Farmer* - Rolling Stone. over 3 years ago
Madonna bitten her at the party and now she have the same virus as Madge...
submitted Mylène Farmer - Tristana (Bande Originale Du Clip). over 4 years ago
posted a comment on Björk - Utopia. over 4 years ago
Vespertine is a pure MASTERPIECE from the beginning till the end and one of my all time favs! But Utopia....... Meh..........
posted a comment on Björk - Utopia. over 4 years ago
She lied to us! This is not Utopia - this is boredom monotony second time in a row... :/
submitted UNKLE - A Night's Interlude Ep. 1 (The Road Reconstructed). over 4 years ago
posted a comment on Depeche Mode - Where's The Revolution [Remixes]. over 4 years ago
WHAT WAS IT? Total waste of time and money! :/ Not the best press at all - too scratchy. Sounds like a heavy used record. Maybe it's just my copy sucks though...
submitted Scissor Sisters - Mary. over 4 years ago
submitted Erasure - Love You To The Sky. over 4 years ago
posted a comment on Zeigeist - The Jade Motel. over 4 years ago
It looks like CD was burned from mp3's - awful spectres :(
posted a comment on Erasure - From Moscow To Mars (An Erasure Anthology). over 5 years ago
The remaining stock will be available at Lexer in January, 2017.
posted a comment on Jay-Jay Johanson - Opium. over 5 years ago
Think twice before buying this vinyl! Really not a good press - don't like the sound at all :/
posted a comment on Róisín Murphy - Take Her Up To Monto!. over 5 years ago
I didn't received signed print too - just a signed copies of vinyl and CD :/
posted a review of Pet Shop Boys - Twenty-something. over 5 years ago
Lame and boring choice for a single! One of the weakest songs on a new album. Remixes nothing worth about. Only B-Sides as always great and better than a main track.
posted a comment on Clarke* : Hartnoll* - 2Square. over 5 years ago
We need CD & Vinyl! What a shame that it wasn't released on any physical format!
posted a comment on Depeche Mode - Freelove. over 5 years ago
How come that Flood Mix was never released on vinyl??? :/
posted a comment on Mylene Farmer* - Interstellaires. over 6 years ago
posted a comment on Mylene Farmer* - Interstellaires. over 6 years ago
Album is good but:
DR6 0.00 dB -8.72 dB 3:11 01 Interstellaires
DR6 -0.23 dB -8.69 dB 3:23 02 Stolen Car
DR7 0.00 dB -8.48 dB 4:11 03 A Rebours
DR6 0.00 dB -7.98 dB 3:41 04 C'est pas moi
DR8 ... See full review
posted a comment on Mylene Farmer* - Interstellaires. over 6 years ago
CD: Very bad mastering :/ (Sorry, posted before at wrong place)
submitted Chvrches - Every Open Eye. over 6 years ago
posted a comment on Erasure - Sacred. over 6 years ago
5 tracks from 9 on CD are MPEG's :( And this is awful, really awful :( Such a shame!
submitted Röyksopp - The Drug. over 7 years ago
posted a comment that has since been deleted. over 8 years ago
submitted Metronomy - I'm Aquarius. over 8 years ago
submitted Towa Tei - Sunny EP. over 8 years ago
posted a comment on Erasure - Snow Globe. over 8 years ago
There was no any problems with buying this box at Erasure's website. And it was available for a couple of weeks. About what bad luck do you talk?
submitted Jay-Jay Johanson - I Miss You Most Of All. over 8 years ago
submitted Jay-Jay Johanson - The Long Term Physical Effects Are Not Yet Known. over 8 years ago
submitted Jay-Jay Johanson - Cockroach. over 8 years ago
submitted Empire Of The Sun - DNA. over 8 years ago
submitted Empire Of The Sun - DNA. over 8 years ago
submitted Sister Sledge - Thinking Of You (Dimitri From Paris 12" Remixes). over 8 years ago
submitted Chic - I Want Your Love (Dimitri From Paris 12" Remixes). over 8 years ago
submitted Mylene Farmer* - Monkey Me (Remixes). over 8 years ago