Recent Activity
submitted Wolfgang Amadeus Mozart - Symphonies 29, 32, 33, 35, 36, 38, 39, 40, 41. 9 months ago
submitted Tschaikowsky*, Berliner Philharmoniker, Karajan* - 6 Symphonien. 9 months ago
submitted Sibelius* • Karajan*, Berliner Philharmoniker - Symphonien 4•5•6•7, Violinkonzert, Finlandia • Valse Triste • Tapiola, Der Schwan Von Tuonela. 9 months ago
submitted Strawinsky* - Berliner Philharmoniker, Herbert von Karajan - Strawinsky: Le Sacre Du Printemps. 11 months ago
submitted Mozart* - Anna Tomowa-Sintow, Agnes Baltsa, Werner Krenn, José Van Dam, Wiener Singverein, Berliner Philharmoniker, Herbert Von Karajan - Mozart: Requiem. 11 months ago
submitted Gustav Mahler - Christa Ludwig, Berliner Philharmoniker, Herbert Von Karajan - 5. Symphonie - Kindertotenlieder. 11 months ago
submitted Herbert von Karajan, Berliner Philharmoniker - Märsche - Prussian And Austrian Marches. 11 months ago
submitted Gustav Mahler, Berliner Philharmoniker, Herbert von Karajan - 9. Symphonie. 11 months ago
submitted Schostakowitsch* – Berliner Philharmoniker · Herbert von Karajan - Shostakovich: Symphony No. 10. 11 months ago
submitted Georg Gulyás - Plays Bach II. 11 months ago
submitted Shostakovich* & Ustvolskaya* - Jacoby*, Royal Philharmonic Orchestra*, Mackerras* - Piano Concertos. 11 months ago
submitted Arthur Bliss, Sir William Walton, The BBC Concert Orchestra, Lorraine McAslan, Martin Yates (2) - Arthur Bliss | Concerto For Violin And Orchestra | William Walton | Concerto For Violin And Orchestra. 11 months ago
posted a comment on Atlanta Rhythm Section - Red Tape. about 1 year ago
MAAT DR offline:
----------------------------------------------------------------------------------------------
DR Peak RMS Filename ... See full review
posted a comment on France Gall - Poupée De Cire Poupée De Son. about 1 year ago
MAAT DR Offline:
----------------------------------------------------------------------------------------------
DR Peak RMS Filename ... See full review
posted a comment on 38 Special (2) = 38 スペシャル* - 38 Special = 38 スペシャル. about 1 year ago
MAAT DR Offline:
DR Peak RMS Filename
----------------------------------------------------------------------------------------------

DR12 -1.57 dB -15.37 dB 01 - Long Time Gone.flac
DR12 -4.55 dB -19.46 dB 02 - Fly Away.flac
DR12 -3.21 dB -17.25 dB ... See full review
posted a comment on Bob Marley & The Wailers - Live!. about 1 year ago
MAAT DR Offline:
----------------------------------------------------------------------------------------------
DR Peak RMS Filename
----------------------------------------------------------------------------------------------

DR14 -0.00 dB -15.41 dB ... See full review
posted a comment on Bob Marley & The Wailers - Uprising. about 1 year ago
MAAT DR Offline:
DR Peak RMS Filename
----------------------------------------------------------------------------------------------

DR14 -0.00 dB -15.96 dB 01 Coming in From the Cold.flac
DR14 -0.71 dB -16.11 dB 02 Real Situation.flac
DR14 -0.06 dB ... See full review
posted a comment on Bob Marley & The Wailers - Rastaman Vibration. about 1 year ago
MAAT DR Offline measurements:
----------------------------------------------------------------------------------------------
DR Peak RMS Filename
----------------------------------------------------------------------------------------------

DR15 -0.13 ... See full review
posted a comment on Bob Marley & The Wailers - Catch A Fire. about 1 year ago
MAAT DR Offline measurements:
----------------------------------------------------------------------------------------------
DR Peak RMS Filename
----------------------------------------------------------------------------------------------

DR12 -0.00 ... See full review
posted a comment on The Wailers - Burnin'. about 1 year ago
MAAT DR Offline measurements:
MAAT DR Offline:
----------------------------------------------------------------------------------------------
DR Peak RMS Filename ... See full review
submitted Atlanta Rhythm Section - Red Tape. about 1 year ago
submitted France Gall - Poupée De Cire Poupée De Son. about 1 year ago
submitted Brigitte Bardot - B.B.. about 1 year ago
submitted Mendelssohn Bartholdy*, Berliner Philharmoniker, Herbert von Karajan - 5 Symphonien. about 1 year ago
submitted Janos Starker, David Baker (3) - Starker Plays Baker. about 1 year ago
submitted Henry Townsend - My Story. about 1 year ago
submitted Terry Evans - Blues For Thought. about 1 year ago
submitted The Jimmy Rushing All Stars - Gee Baby Ain't I Good To You. about 1 year ago
submitted Ernest Bloch - Ernest Bloch, Concerto Symphonique, Scherzo Fantasque, Concerto Grosso No 2. about 1 year ago
submitted Gustav Mahler, Maurice de Abravanel, Utah Symphony Orchestra, University of Utah Chorus - Mahler: Symphony No. 8 In E Flat Major, "Symphony Of A Thousand.". about 1 year ago
submitted Canteloube* / Netania Davrath / De La Roche* - Songs Of The Auvergne. about 1 year ago
submitted Hector Berlioz ; Maurice Abravanel* With The Utah Symphony Orchestra And The University Of Utah Civic Chorale Assisted By The University Of Utah A Capella Choir* - Requiem. Grande Messe Des Morts, Op. 5. about 1 year ago
submitted Wayne Shorter - Speak No Evil. about 1 year ago
submitted Horace Silver - Song For My Father. about 1 year ago
submitted Johnny Griffin - A Blowin' Session. about 1 year ago
submitted Eric Dolphy - Out To Lunch!. about 1 year ago
submitted The Velvet Underground & Nico (3) - The Velvet Underground & Nico. about 1 year ago
submitted Sonny Rollins - A Night At The "Village Vanguard". about 1 year ago
submitted Johannes Brahms, Berlin Philharmonic Orchestra*, Herbert von Karajan - The Four Symphonies. about 1 year ago
submitted Herbie Hancock - Speak Like A Child. about 1 year ago
submitted Saint-Saëns*, Debussy*, Ibert*, Boston Symphony* / Munch*, Berj Zamkochian - A Stereo Spectacular: Saint-Saens Symphony No.3. about 1 year ago
submitted Cannonball Adderley - Presenting "Cannonball". about 1 year ago
submitted Peter Tschaikowsky* - Leningrader Philharmonie*, Jewgenij Mrawinskij* - Tschaikowsky: Symphonie Nr.5. about 1 year ago
submitted Pyotr Ilyich Tchaikovsky, Leningrader Philharmonie*, Jewgenij Mrawinskij* - Tschaikovsky: Symphonie Nr. 4. about 1 year ago
submitted Eric Clapton - 461 Ocean Boulevard. about 1 year ago
submitted Hector Berlioz, Concertgebouworkest - Sir Colin Davis - Symphonie Fantastique. about 1 year ago
submitted Béla Bartók, London Symphony Orchestra*, Sir Georg Solti* - Concerto For Orchestra / Dance Suite / The Miraculous Mandarin. about 1 year ago
submitted Frédéric Chopin - Maurizio Pollini - Polonaises. about 1 year ago
submitted Gustav Holst - Zubin Mehta, Los Angeles Philharmonic Orchestra, John Williams (4) - The Planets / Star Wars Suite. about 1 year ago
submitted Ottorino Respighi • Boston Symphony Orchestra • Seiji Ozawa - Pini Di Roma • Feste Romane • Fontane Di Roma. about 1 year ago